Action

Boondock Saints RICO

  • Download 5x Faster
  • Download torrent
  • Direct Download
  • Rate this torrent +  |  -
Boondock Saints RICO

Free and Direct Download with Usenet.nl 300GB+ free


Torrent info

Name:Boondock Saints RICO

Total Size: 700.44 MB

Magnet: Magnet Link

Seeds: 1

Leechers: 2

Stream: Watch Online @ Movie4u

Last Updated: 2010-07-28 11:19:38 (Update Now)

Torrent added: 2008-12-08 04:34:02





Torrent Files List


DSMinionRelease.jpg (Size: 700.44 MB) (Files: 4)

 DSMinionRelease.jpg

110.20 KB

 The.Boondock.Saint's[1999]dvdrip[eng]-RICO.avi

700.33 MB

 The.Boondock.Saint's[1999]dvdrip[eng]-RICO.nfo

1.24 KB

 tracked_by_h33t_com.txt

0.02 KB
 

Announce URL: http://www.h33t.com:3310/announce

Torrent description

Boondock Saints   RICO preview 0
General
Complete name : G:\Movies\Blood Diamond_ -RICO\Blood.Diamond[2006]DvDrip[Eng]-RICO.avi
Format : AVI
Format/Info : Audio Video Interleave
File size : 900 MiB
Duration : 2h 23mn
Overall bit rate : 878 Kbps
Writing application : VirtualDubMod 1.5.10.1 (build 2366/release)
Writing library : VirtualDubMod build 2366/release

Video
Format : MPEG-4 Visual
Format profile : Streaming [email protected]
Format settings, BVOP : Yes
Format settings, QPel : No
Format settings, GMC : No warppoints
Format settings, Matrix : Default
Codec ID : DX50
Codec ID/Hint : DivX 5
Duration : 2h 23mn
Bit rate : 757 Kbps
Width : 612 pixels
Height : 250 pixels
Display aspect ratio : 2.448
Frame rate : 23.976 fps
Resolution : 24 bits
Colorimetry : 4:2:0
Scan type : Progressive
Bits/(Pixel*Frame) : 0.206
Stream size : 776 MiB (86%)
Writing library : XviD 1.0.3 (UTC 2004-12-20)

Audio
Format : MPEG Audio
Format version : Version 1
Format profile : Layer 3
Codec ID : 55
Codec ID/Hint : MP3
Duration : 2h 23mn
Bit rate mode : Constant
Bit rate : 112 Kbps
Channel(s) : 2 channels
Sampling rate : 48.0 KHz
Resolution : 16 bits
Stream size : 115 MiB (13%)
Alignment : Aligned on interleaves
Interleave, duration : 42 ms (1.00 video frame)
Interleave, preload duration : 504 ms

related torrents

Torrent name

health leech seeds Size
 

comments (0)

Main Menu