Action

Braveheart RICO

  • Download 5x Faster
  • Download torrent
  • Direct Download
  • Rate this torrent +  |  -
Braveheart RICO

Free and Direct Download with Usenet.nl 300GB+ free


Torrent info

Name:Braveheart RICO

Total Size: 1.37 GB

Magnet: Magnet Link

Seeds: 1

Leechers: 4

Stream: Watch Online @ Movie4u

Last Updated: 2010-07-31 21:31:51 (Update Now)

Torrent added: 2008-12-08 04:34:01





Torrent Files List


Braveheart (1995) [ENG] [DVDrip] CD1.avi (Size: 1.37 GB) (Files: 3)

 Braveheart (1995) [ENG] [DVDrip] CD1.avi

699.87 MB

 Braveheart (1995) [ENG] [DVDrip] CD2.avi

698.10 MB

 tracked_by_h33t_com.txt

0.02 KB
 

Announce URL: http://www.h33t.com:3310/announce

Torrent description

Braveheart  RICO preview 0
General
Complete name : G:\Movies\Braveheart_-RICO\Braveheart (1995) [ENG] [DVDrip] CD1.avi
Format : AVI
Format/Info : Audio Video Interleave
File size : 700 MiB
Duration : 1h 28mn
Overall bit rate : 1 109 Kbps
Writing application : VirtualDubMod 1.5.4.1 (build 2178/release)
Writing library : VirtualDubMod build 2178/release

Video
Format : MPEG-4 Visual
Format profile : Streaming [email protected]
Format settings, BVOP : Yes
Format settings, QPel : No
Format settings, GMC : No warppoints
Format settings, Matrix : Custom
Codec ID : XVID
Codec ID/Hint : XviD
Duration : 1h 28mn
Bit rate : 910 Kbps
Width : 608 pixels
Height : 256 pixels
Display aspect ratio : 2.35
Frame rate : 23.976 fps
Resolution : 24 bits
Colorimetry : 4:2:0
Scan type : Progressive
Bits/(Pixel*Frame) : 0.244
Stream size : 574 MiB (82%)
Writing library : XviD 1.0.2 (UTC 2004-08-29)

Audio
Format : AC-3
Format/Info : Audio Coding 3
Format profile : Dolby Digital
Codec ID : 2000
Duration : 1h 28mn
Bit rate mode : Constant
Bit rate : 192 Kbps
Channel(s) : 2 channels
Channel positions : L R
Sampling rate : 48.0 KHz
Video delay : 31ms
Stream size : 121 MiB (17%)
Alignment : Split accross interleaves
Interleave, duration : 96 ms (2.30 video frames)
Interleave, preload duration : 96 ms
Language : English / English

General
Complete name : G:\Movies\Braveheart_-RICO\Braveheart (1995) [ENG] [DVDrip] CD2.avi
Format : AVI
Format/Info : Audio Video Interleave
File size : 698 MiB
Duration : 1h 28mn
Overall bit rate : 1 099 Kbps
Writing application : VirtualDubMod 1.5.4.1 (build 2178/release)
Writing library : VirtualDubMod build 2178/release

Video
Format : MPEG-4 Visual
Format profile : Streaming [email protected]
Format settings, BVOP : Yes
Format settings, QPel : No
Format settings, GMC : No warppoints
Format settings, Matrix : Custom
Codec ID : XVID
Codec ID/Hint : XviD
Duration : 1h 28mn
Bit rate : 900 Kbps
Width : 608 pixels
Height : 256 pixels
Display aspect ratio : 2.35
Frame rate : 23.976 fps
Resolution : 24 bits
Colorimetry : 4:2:0
Scan type : Progressive
Bits/(Pixel*Frame) : 0.241
Stream size : 572 MiB (82%)
Writing library : XviD 1.0.2 (UTC 2004-08-29)

Audio
Format : AC-3
Format/Info : Audio Coding 3
Format profile : Dolby Digital
Codec ID : 2000
Duration : 1h 28mn
Bit rate mode : Constant
Bit rate : 192 Kbps
Channel(s) : 2 channels
Channel positions : L R
Sampling rate : 48.0 KHz
Video delay : 10ms
Stream size : 122 MiB (17%)
Alignment : Split accross interleaves
Interleave, duration : 96 ms (2.30 video frames)
Interleave, preload duration : 96 ms
Language : English / English

related torrents

Torrent name

health leech seeds Size
 

comments (0)

Main Menu