Action

Harry Potter and the Half Blood Prince TRAILERH33T RICO

  • Download 5x Faster
  • Download torrent
  • Direct Download
  • Rate this torrent +  |  -
Harry Potter and the Half Blood Prince TRAILERH33T RICO

Free and Direct Download with Usenet 300GB+ free


Torrent info

Name:Harry Potter and the Half Blood Prince TRAILERH33T RICO

Total Size: 120.15 MB

Magnet: Magnet Link

Seeds: 0

Leechers: 0

Stream: Watch Online @ Movie4u

Last Updated: 2015-10-19 08:06:59 (Update Now)

Torrent added: 2009-08-18 00:00:00




Torrent Files List


Harry Potter - Half Blood Prince 1080p Trailer-RICO.mov (Size: 120.15 MB) (Files: 2)

 Harry Potter - Half Blood Prince 1080p Trailer-RICO.mov

120.15 MB

 tracked_by_h33t_com.txt

0.02 KB
 

Announce URL:

Torrent description

Harry Potter and the Half Blood Prince TRAILERH33T RICO preview 0

General
Complete name : C:\Program Files\BitLord\Downloads\Harry Potter and the Half-Blood Prince\Harry Potter - Half Blood Prince 1080p Trailer-RICO.mov
Format : MPEG-4
Format profile : QuickTime
Codec ID : qt
File size : 120 MiB
Duration : 1mn 39s
Overall bit rate : 10.2 Mbps
Movie name : Harry Potter and The Half-Blood Prince
Movie name/More : In theaters 2008
Encoded date : UTC 2008-09-21 05:28:09
Tagged date : UTC 2008-09-21 05:28:36
Copyright : © 2008 Warner Bros. Pictures. All Rights Reserved
Comment : Encoded and delivered by apple.com/trailers/

Video
Format : AVC
Format/Info : Advanced Video Codec
Format profile : Main@L4.1
Format settings, CABAC : No
Format settings, ReFrames : 2 frames
Codec ID : avc1
Codec ID/Info : Advanced Video Coding
Duration : 1mn 39s
Bit rate mode : Variable
Bit rate : 9 897 Kbps
Width : 1 920 pixels
Height : 816 pixels
Display aspect ratio : 2.35
Frame rate mode : Constant
Frame rate : 23.976 fps
Resolution : 24 bits
Colorimetry : 4:2:0
Scan type : Progressive
Bits/(Pixel*Frame) : 0.263
Stream size : 117 MiB (97%)
Encoded date : UTC 2008-08-06 21:34:42
Tagged date : UTC 2008-09-21 05:28:36

Audio
Format : AAC
Format/Info : Advanced Audio Codec
Format version : Version 4
Format profile : LC
Format settings, SBR : No
Codec ID : 40
Duration : 1mn 39s
Bit rate mode : Constant
Bit rate : 264.6 Kbps
Nominal bit rate : 256 Kbps
Channel(s) : 6 channels
Channel positions : Front: L C R, Rear: L R, LFE
Sampling rate : 48.0 KHz
Resolution : 16 bits
Stream size : 3.11 MiB (3%)
Encoded date : UTC 2008-08-06 21:34:43
Tagged date : UTC 2008-09-21 05:28:36

related torrents

Torrent name

health leech seeds Size
 

comments (0)

Main Menu