Music Videos

Freddie Mercury The Solo Collection Part V (The Video Collection DVDRip) RePoPo

  • Download 5x Faster
  • Download torrent
  • Direct Download
  • Rate this torrent +  |  -

Torrent info

Name:Freddie Mercury The Solo Collection Part V (The Video Collection DVDRip) RePoPo

Total Size: 1.36 GB

Magnet: Magnet Link

Seeds: 1

Leechers: 0

Stream: Watch Online @ Movie4u

Last Updated: 2015-05-23 07:40:13 (Update Now)

Torrent added: 2008-12-07 08:44:42




Torrent Files List


Freddie Mercury - The Solo Collection Part V (The Video Collecion DVDRip) [RePoPo].avi (Size: 1.36 GB) (Files: 4)

 Freddie Mercury - The Solo Collection Part V (The Video Collecion DVDRip) [RePoPo].avi

1.36 GB

 Freddie mercury the video collection.jpg

290.29 KB

 Info.txt

4.38 KB

 Torrent downloaded from Demonoid.com.txt

0.05 KB
 

tracker

leech seeds
 

Torrent description

*******************************************************************************
Freddie Mercury - The Solo Collection Part V (The Video Collection)
*******************************************************************************


Tracklist:

1. Barcelona (Live)
2. The Great Pretender (Single Version)
3. I Was Born To Love You
4. Time (2000 Remix)
5. How Can I Go On (Live)
6. Made In Heaven
7. Living On My Own (Original)
8. The Golden Boy (Live)
9. The Great Pretender (Extended Version)
10. Barcelona (Single Version)
11. In My Defence (2000 Re-Edit)
12. Guide Me Home (Titles; Piano version performed by Thierry Lang)

-------------------------------------------------------------------------------

There are both a stereo and a 5.1 surround audio mix for each track. Surround
Sound mixes produced by David Richards and Peter Cobbin except 'I Was Born To
Love You' and 'Made In Heaven', produced by Mack, 'Time' and 'In My Defence',
produced by Dave Clark, and 'Living On My Own', produced by Paul Hicks.

This is intended to be played on a PC or a HTPC. If it works on your standalone
player, good for you. You can always convert it to a regular DVD using tools as
ConvertXtoDVD.

Check you have installed the right codecs, as listed in this .nfo file, before
trying to play it. VLC will play this file without having to install any codec.

There are two audio tracks in this file. If you don't have an updated AC3
audio codec installed, you might hear strange echoes or unbalanced sound. Check
you have them and update before posting about it. VLC will play this video
flawlessly and allow you to select/change between those audio tracks.

If you don't like the codec(s), container, resolution, file size, languages or
any technical aspect on this rip, keep it to yourself and go and do your own.

Serious feedback on quality will always be welcome.


-------------------------------------------------------------------------------

General
Format : AVI
Format/Info : Audio Video Interleave
File size : 1.36 GiB
Duration : 53mn 53s
Overall bit rate : 3 623 Kbps

Video
Format : AVC
Format/Info : Advanced Video Codec
Format profile : [email protected]
Format settings, CABAC : Yes
Format settings, ReFrames : 3 frames
Codec ID : H264
Duration : 53mn 53s
Bit rate : 2 905 Kbps
Width : 704 pixels
Height : 512 pixels
Display aspect ratio : 1.375
Frame rate : 25.000 fps
Resolution : 24 bits
Colorimetry : 4:2:0
Scan type : Progressive
Bits/(Pixel*Frame) : 0.322
Stream size : 1.09 GiB (80%)
Writing library : x264 core 58 svn-736bm

Audio #1
Format : AC-3
Format/Info : Audio Coding 3
Codec ID : 2000
Duration : 53mn 53s
Bit rate mode : Constant
Bit rate : 448 Kbps
Channel(s) : 6 channels
Channel positions : Front: L C R, Rear: L R, LFE
Sampling rate : 48.0 KHz
Stream size : 173 MiB (12%)
Alignment : Split accross interleaves
Interleave, duration : 40 ms (1.00 video frame)
Interleave, preload duration : 500 ms

Audio #2
Format : AC-3
Format/Info : Audio Coding 3
Codec ID : 2000
Duration : 53mn 53s
Bit rate mode : Constant
Bit rate : 256 Kbps
Channel(s) : 2 channels
Channel positions : L R
Sampling rate : 48.0 KHz
Stream size : 98.7 MiB (7%)
Alignment : Split accross interleaves
Interleave, duration : 40 ms (1.00 video frame)
Interleave, preload duration : 500 ms

-------------------------------------------------------------------------------

This is a part of the 10cd+2DVD box The Freddie Mercury Solo Collection

Part I: The Albums
CD01 Mr. Bad Guy
CD02 Barcelona

Part II: The Singles
CD04 The Singles 1973-1985
CD05 The Singles 1986-1993

Part III: Rarities
CD06 Rarities I (Mr. Bad Guy Sessions)
CD07 Rarities II (Barcelona Sessions)
CD08 Rarities III (Other Sessions)

Part IV: Remixes, Instrumentals and Interviews
CD03 The Great Pretender
CD09 Instrumentals
CD10 David Wigg Interviews

Part V: The Video Collection (H.264/AC3 DVDRip)

Part VI: The Untold Story (H.264/AC3 DVDRip)

-------------------------------------------------------------------------------

related torrents

Torrent name

health leech seeds Size
 


comments (0)

Main Menu