Rock

The Sparks 1971 Halfnelson Japan K2HD remastered EAC FLAC SCANS

  • Download 5x Faster
  • Download torrent
  • Direct Download
  • Rate this torrent +  |  -
The Sparks 1971 Halfnelson Japan K2HD remastered EAC FLAC SCANS

Anonymous and Free Direct Download 300GB+


Torrent info

Name:The Sparks 1971 Halfnelson Japan K2HD remastered EAC FLAC SCANS

Total Size: 265.28 MB

Magnet: Magnet Link

Seeds: 0

Leechers: 0

Stream: Watch Online @ Movie4u

Last Updated: 2017-08-03 04:20:59 (Update Now)

Torrent added: 2008-12-07 08:44:05



VPN For Torrents

Torrent Files List


The Sparks - 1971 - Halfnelson_Japan K2HD remastered_EAC-FLAC-SCANS.rar (Size: 265.28 MB) (Files: 1)

 The Sparks - 1971 - Halfnelson_Japan K2HD remastered_EAC-FLAC-SCANS.rar

265.28 MB
 

Announce URL:

Torrent description

Exact Audio Copy V0.99 prebeta 4 from 23. January 2008

EAC Auslese-Logdatei vom 1. September 2008, 22:13

The Sparks / Halfnelson

Benutztes Laufwerk : HL-DT-STDVDRAM GSA-H10N Adapter: 1 ID: 0

Lesemodus : Sicher
Benutze Accurate Stream : Ja
Audio Puffer abgeschaltet : Nein
Benutze C2 Fehlerinformationen : Nein

Leseoffset Korrektur : 667
?berlesen in das Lead-In und Lead-Out : Ja
F?lle fehlende Offsetsample mit Stille auf : Ja
L?sche f?hrende und nachfolgende stille Bl?cke : Nein
Null Samples gehen in CRC Berechnungen ein : Nein
Benutzte Schnittstelle : Nat?rliche Win32 Schnittstelle f?r Win NT/2000/XP

Benutztes Ausgabeformat : Interne WAV Routinen
Sampleformat : 44.100 Hz; 16 Bit; Stereo


TOC der ausgelesenen CD

Track | Start | L?nge | Startsektor | Endsektor
-------------------------------------------------------
1 | 0:00.00 | 2:21.38 | 0 | 10612
2 | 2:21.38 | 2:54.25 | 10613 | 23687
3 | 5:15.63 | 2:34.00 | 23688 | 35237
4 | 7:49.63 | 3:14.11 | 35238 | 49798
5 | 11:03.74 | 4:13.54 | 49799 | 68827
6 | 15:17.53 | 3:53.08 | 68828 | 86310
7 | 19:10.61 | 3:54.46 | 86311 | 103906
8 | 23:05.32 | 3:08.61 | 103907 | 118067
9 | 26:14.18 | 4:02.27 | 118068 | 136244
10 | 30:16.45 | 4:15.60 | 136245 | 155429
11 | 34:32.30 | 5:48.17 | 155430 | 181546


Bereichsstatus und Fehler

Gew?hlter Bereich

Dateiname D:\CDRIP\The Sparks - Halfnelson.wav

Spitzenpegel 99.1 %
Bereichsqualit?t 100.0 %
Kopie CRC 15BA8E7D
Kopie OK

Keine Fehler aufgetreten


AccurateRip ?bersicht

Track 1 nicht in Datenbank enthalten
Track 2 nicht in Datenbank enthalten
Track 3 nicht in Datenbank enthalten
Track 4 nicht in Datenbank enthalten
Track 5 nicht in Datenbank enthalten
Track 6 nicht in Datenbank enthalten
Track 7 nicht in Datenbank enthalten
Track 8 nicht in Datenbank enthalten
Track 9 nicht in Datenbank enthalten
Track 10 nicht in Datenbank enthalten
Track 11 nicht in Datenbank enthalten

Keiner der Tracks ist in der AccurateRip Datenbank vorhanden

Ende des Statusreports

related torrents

Torrent name

health leech seeds Size
 


comments (0)

Main Menu