Family

thesnapper avi

  • Download 5x Faster
  • Download torrent
  • Direct Download
  • Rate this torrent +  |  -
thesnapper avi

Anonymous and Direct Download 300GB+ free


Torrent info

Name:thesnapper avi

Total Size: 871.55 MB

Magnet: Magnet Link

Seeds: 0

Leechers: 0

Stream: Watch Online @ Movie4u

Last Updated: 2010-01-05 09:14:39 (Update Now)

Torrent added: 2008-12-07 08:42:00




Torrent Files List


thesnapper.avi (Size: 871.55 MB) (Files: 1)

 thesnapper.avi

871.55 MB
 

Announce URL: http://tracker.thepiratebay.org:80/announce

Torrent description

*****************************SKANGSTER PRESENTS*********************************


THE SNAPPER.1993.dvdrip.avi.SKANGSTER

________________________________________________________________________________

thesnapper avi preview 0
________________________________________________________________________________


PLOT:Set in Ireland, Sharon Curley is a 20 year old living with her parents and many brothers and sisters. When she gets herself pregnant and refuses to name the father, she becomes the talk of the town


General

Complete name :THE SNAPPER.1993.dvdrip.avi.SKANGSTER
:
Format : AVI
Format/Info : Audio Video Interleave
File size : 872 MiB
Duration : 49mn 10s
Overall bit rate : 2 478 Kbps

Video
Format : MPEG-4 Visual
Codec ID : DIVX
Codec ID/Info : Project Mayo
Codec ID/Hint : DivX 4
Duration : 49mn 10s
Bit rate : 1 200 Kbps
Width : 720 pixels
Height : 576 pixels
Display aspect ratio : 5/4
Frame rate : 25.000 fps
Standard : PAL
Resolution : 24 bits
Bits/(Pixel*Frame) : 0.116
Stream size : 422 MiB (48%)

Audio
Format : MPEG Audio
Codec ID : 55
Codec ID/Hint : MP3
Bit rate : 128 Kbps
Channel(s) : 2 channels
Sampling rate : 48.0 KHz
Stream size : 45.0 MiB (5%)
Alignment : Aligned on interleaves
Interleave, duration : 24 ms (0.60 video frame


________________________________________________________________________________


________________________________________________________________________________

thesnapper avi preview 1
________________________________________________________________________________

thesnapper avi preview 2
________________________________________________________________________________

thesnapper avi preview 3
________________________________________________________________________________

http://www.imdb.com/title/tt0108170/



PLEASE SEED WHEN DOWNLOADED

related torrents

Torrent name

health leech seeds Size

TheSnapper avi

0 0 871.55 MB 0
 


comments (0)

Main Menu