Comedy

Big Daddy RICO

  • Download 5x Faster
  • Download torrent
  • Direct Download
  • Rate this torrent +  |  -
Big Daddy RICO

Free and Direct Download with Usenet.nl 300GB+ free


Torrent info

Name:Big Daddy RICO

Total Size: 902.79 MB

Magnet: Magnet Link

Seeds: 1

Leechers: 7

Stream: Watch Online @ Movie4u

Last Updated: 0000-00-00 00:00:00 (Update Now)

Torrent added: 2008-12-07 08:40:31





Torrent Files List


Big Daddy (1999)-RICO.avi (Size: 902.79 MB) (Files: 3)

 Big Daddy (1999)-RICO.avi

902.79 MB

 MEDIA INFO.DOC

2.42 KB

 tracked_by_h33t_com.txt

0.02 KB
 

Announce URL: http://www.h33t.com:3310/announce

Torrent description

Big Daddy   RICO preview 0
General
Complete name : G:\Movies\Big Daddy_ -RICO\Big Daddy (1999)-RICO.avi
Format : AVI
Format/Info : Audio Video Interleave
File size : 903 MiB
Duration : 1h 23mn
Overall bit rate : 1 515 Kbps
Writing application : FairUse Wizard - http://fairusewizard.com
Writing library : The best and REALLY easy backup tool

Video
Format : MPEG-4 Visual
Format profile : Streaming [email protected]
Format settings, BVOP : Yes
Format settings, QPel : No
Format settings, GMC : No warppoints
Format settings, Matrix : Default
Muxing mode : Packed bitstream
Codec ID : XVID
Codec ID/Hint : XviD
Duration : 1h 23mn
Bit rate : 1 121 Kbps
Width : 672 pixels
Height : 368 pixels
Display aspect ratio : 16/9
Frame rate : 25.000 fps
Resolution : 24 bits
Colorimetry : 4:2:0
Scan type : Progressive
Bits/(Pixel*Frame) : 0.181
Stream size : 668 MiB (74%)
Writing library : XviD 1.2.0.dev47 (UTC 2006-11-01)

Audio
Format : AC-3
Format/Info : Audio Coding 3
Codec ID : 2000
Duration : 1h 23mn
Bit rate mode : Constant
Bit rate : 384 Kbps
Channel(s) : 6 channels
Channel positions : Front: L C R, Surround: L R, LFE
Sampling rate : 48.0 KHz
Stream size : 229 MiB (25%)
Alignment : Split accross interleaves
Interleave, duration : 40 ms (1.00 video frame)
Interleave, preload duration : 500 ms

related torrents

Torrent name

health leech seeds Size

Big Fish RICO

3 1 699.74 MB 0
 

comments (0)

Main Menu