Comedy

Big Fish RICO

  • Download 5x Faster
  • Download torrent
  • Direct Download
  • Rate this torrent +  |  -
Big Fish RICO

Anonymous and Free Direct Download 300GB+


Torrent info

Name:Big Fish RICO

Total Size: 699.74 MB

Magnet: Magnet Link

Seeds: 1

Leechers: 3

Stream: Watch Online @ Movie4u

Last Updated: 2009-12-08 01:32:01 (Update Now)

Torrent added: 2008-12-07 08:40:27



VPN For Torrents

Torrent Files List


BigFish-RICO.avi (Size: 699.74 MB) (Files: 2)

 BigFish-RICO.avi

699.74 MB

 tracked_by_h33t_com.txt

0.02 KB
 

Announce URL: http://www.h33t.com:3310/announce

Torrent description

Big Fish RICO preview 0
General
Complete name : G:\Movies\Big Fish-RICO\BigFish-RICO.avi
Format : AVI
Format/Info : Audio Video Interleave
File size : 700 MiB
Duration : 2h 0mn
Overall bit rate : 815 Kbps
Writing application : FairUse Wizard - http://fairusewizard.com
Writing library : The best and REALLY easy backup tool

Video
Format : MPEG-4 Visual
Format profile : Streaming [email protected]
Format settings, BVOP : Yes
Format settings, QPel : No
Format settings, GMC : No warppoints
Format settings, Matrix : Default
Codec ID : XVID
Codec ID/Hint : XviD
Duration : 2h 0mn
Bit rate : 709 Kbps
Width : 688 pixels
Height : 368 pixels
Display aspect ratio : 1.870
Frame rate : 25.000 fps
Resolution : 24 bits
Colorimetry : 4:2:0
Scan type : Progressive
Bits/(Pixel*Frame) : 0.112
Stream size : 609 MiB (87%)
Writing library : XviD 1.1.0 Beta2 (UTC 2005-04-04)

Audio
Format : MPEG Audio
Format version : Version 1
Format profile : Layer 3
Codec ID : 55
Codec ID/Hint : MP3
Duration : 2h 0mn
Bit rate mode : Constant
Bit rate : 96.0 Kbps
Minimum bit rate : 96.0 Kbps
Channel(s) : 2 channels
Sampling rate : 48.0 KHz
Resolution : 16 bits
Stream size : 82.4 MiB (12%)
Alignment : Aligned on interleaves
Interleave, duration : 40 ms (1.00 video frame)
Interleave, preload duration : 504 ms
Writing library : LAME3.96r
Encoding settings : CBR

related torrents

Torrent name

health leech seeds Size
 


comments (0)

Main Menu