Comedy

Billy Madison RICO

  • Download 5x Faster
  • Download torrent
  • Direct Download
  • Rate this torrent +  |  -
Billy Madison RICO

Free and Direct Download with Usenet 300GB+ free


Torrent info

Name:Billy Madison RICO

Total Size: 700.22 MB

Magnet: Magnet Link

Seeds: 1

Leechers: 3

Stream: Watch Online @ Movie4u

Last Updated: 2011-01-08 10:01:07 (Update Now)

Torrent added: 2008-12-07 08:40:27




Torrent Files List


Billy Madison (1995)-RICO.avi (Size: 700.22 MB) (Files: 5)

 Billy Madison (1995)-RICO.avi

700.21 MB

 Billy Madison-RICO.nfo

1.14 KB

 billy madison.jpg

5.19 KB

 MEDIA INFO.DOC

2.61 KB

 tracked_by_h33t_com.txt

0.02 KB
 

Announce URL: http://www.h33t.com:3310/announce

Torrent description

Billy Madison  RICO preview 0
General
Complete name : G:\Movies\Billy Madison_-RICO\Billy Madison (1995)-RICO.avi
Format : AVI
Format/Info : Audio Video Interleave
File size : 700 MiB
Duration : 1h 29mn
Overall bit rate : 1 091 Kbps
Writing application : VirtualDubMod 1.5.4.1 (build 2178/release)
Writing library : VirtualDubMod build 2178/release

Video
Format : MPEG-4 Visual
Format profile : Streaming [email protected]
Format settings, BVOP : Yes
Format settings, QPel : No
Format settings, GMC : No warppoints
Format settings, Matrix : Custom
Codec ID : XVID
Codec ID/Hint : XviD
Duration : 1h 29mn
Bit rate : 964 Kbps
Width : 608 pixels
Height : 336 pixels
Display aspect ratio : 16/9
Frame rate : 23.976 fps
Resolution : 24 bits
Colorimetry : 4:2:0
Scan type : Progressive
Bits/(Pixel*Frame) : 0.197
Stream size : 619 MiB (88%)
Writing library : XviD 1.2.0.dev47 (UTC 2006-11-01)

Audio
Format : MPEG Audio
Format version : Version 1
Format profile : Layer 3
Codec ID : 55
Codec ID/Hint : MP3
Duration : 1h 29mn
Bit rate mode : Variable
Bit rate : 114 Kbps
Minimum bit rate : 128 Kbps
Channel(s) : 2 channels
Sampling rate : 48.0 KHz
Resolution : 16 bits
Stream size : 73.2 MiB (10%)
Alignment : Aligned on interleaves
Interleave, duration : 24 ms (0.58 video frame)
Interleave, preload duration : 548 ms
Writing library : LAME3.97
Encoding settings : ABR
Language : English

related torrents

Torrent name

health leech seeds Size

Billy Madison RICO

0 0 1.57 GB 0
 

comments (0)

Main Menu