Animation

Cars 2006 PORTUGUESE AC3 DVDRiP Xvid

  • Download 5x Faster
  • Download torrent
  • Direct Download
  • Rate this torrent +  |  -
Cars 2006 PORTUGUESE AC3 DVDRiP Xvid

Anonymous and Free Direct Download


Torrent info

Name:Cars 2006 PORTUGUESE AC3 DVDRiP Xvid

Total Size: 1.07 GB

Magnet: Magnet Link

Seeds: 1

Leechers: 8

Stream: Watch Online @ Movie4u

Last Updated: 2010-11-18 11:36:57 (Update Now)

Torrent added: 2008-07-11 21:34:14



VPN For Torrents

Torrent Files List


Cars.2006.PORTUGUESE.AC3.DVDRiP.Xvid.avi (Size: 1.07 GB) (Files: 1)

 Cars.2006.PORTUGUESE.AC3.DVDRiP.Xvid.avi

1.07 GB
 

Announce URL: http://tracker.bittorrent.am/announce

Torrent description

Complete name : Cars.2006.PORTUGUESE.AC3.DVDRiP.Xvid.avi
Format : AVI
Format/Info : Audio Video Interleave
File size : 1.07 GiB
Duration : 1h 51mn
Overal bit rate : 1377 Kbps
Writing application : VirtualDubMod 1.5.4.1 (build 2178/release)
Writing library : VirtualDubMod build 2178/release
IAS1 : Portugues

Video
Format : MPEG-4 Visual
Format profile : Streaming [email protected]
Format settings, BVOP : Yes
Format settings, QPel : No
Format settings, GMC : No warppoints
Format settings, Matrix : Custom
Codec ID : XVID
Codec ID/Hint : XviD
Duration : 1h 51mn
Bit rate : 986 Kbps
Width : 720 pixels
Height : 304 pixels
Display aspect ratio : 2.35
Frame rate : 25.000 fps
Resolution : 8 bits
Colorimetry : 4:2:0
Scan type : Progressive
Bits/(Pixel*Frame) : 0.180
Stream size : 788 MiB
Writing library : XviD 1.1.2 (UTC 2006-11-01)

Audio
Format : AC-3
Format/Info : Audio Coding 3
Codec ID : 2000
Duration : 1h 51mn
Bit rate mode : Constant
Bit rate : 384 Kbps
Channel(s) : 6 channels
Channel positions : Front: L C R, Rear: L R, LFE
Sampling rate : 48.0 KHz
Stream size : 307 MiB

related torrents

Torrent name

health leech seeds Size
 


comments (0)

Main Menu