Action

THE GENERAL 1998 DVDRIP SKANGSTER

  • Download 5x Faster
  • Download torrent
  • Direct Download
  • Rate this torrent +  |  -
THE GENERAL 1998 DVDRIP SKANGSTER

Free and Direct Download with Usenet 300GB+ free


Torrent info

Name:THE GENERAL 1998 DVDRIP SKANGSTER

Total Size: 800.04 MB

Magnet: Magnet Link

Seeds: 0

Leechers: 1

Stream: Watch Online @ Movie4u

Last Updated: 2010-09-22 08:40:32 (Update Now)

Torrent added: 2008-12-07 04:37:12




Torrent Files List


THE GENERAL..IRISH MOVIE...SKANGSTER.avi (Size: 800.04 MB) (Files: 1)

 THE GENERAL..IRISH MOVIE...SKANGSTER.avi

800.04 MB
 

Announce URL: http://tracker.thepiratebay.org:80/announce

Torrent description

===============================SKANGSTER PRESENTS===============================

THE GENERAL 1998 DVDRIP SKANGSTER


General

Complete name : THE GENERAL..1998..DVDRIP...SKANGSTER
Format : AVI
Format/Info : Audio Video Interleave
File size : 800 MiB
Duration : 1h 58mn
Overall bit rate : 942 Kbps
Writing application : VirtualDubMod 1.5.4.1 (build 2178/release)
Writing library : VirtualDubMod build 2178/release

Video
Format : MPEG-4 Visual
Format profile : Streaming [email protected]
Format settings, BVOP : Yes


Format settings, Matrix : Custom
Codec ID : XVID
Codec ID/Hint : XviD
Duration : 1h 58mn
Bit rate : 807 Kbps
Width : 656 pixels
Height : 368 pixels
Display aspect ratio : 16/9
Frame rate : 25.000 fps
Resolution : 24 bits
Colorimetry : 4:2:0
Scan type : Progressive
Bits/(Pixel*Frame) : 0.134
Stream size : 685 MiB (86%)
Writing library : XviD 1.2.0.dev47 (UTC 2006-11-01)

Audio
Format : MPEG Audio
Format version : Version 1
Format profile : Layer 3
Codec ID : 55
Codec ID/Hint : MP3
Duration : 1h 58mn
Bit rate mode : Constant
Bit rate : 128 Kbps
Channel(s) : 2 channels
Sampling rate : 44.1 KHz
Resolution : 16 bits
Stream size : 109 MiB (14%)
Alignment : Split accross interleaves
Interleave, duration : 80 ms (2.00 video frames)
Interleave, preload duration : 500 ms

[url=http://www.imdb.com/title/tt0120706/]

related torrents

Torrent name

health leech seeds Size

The General (1998)

0 0 702.13 MB 0
 

comments (0)

Main Menu