Action

Hancock2008CAM XviDEng

  • Download 5x Faster
  • Download torrent
  • Direct Download
  • Rate this torrent +  |  -
Hancock2008CAM XviDEng

Anonymous and free Direct Download 300GB+


Torrent info

Name:Hancock2008CAM XviDEng

Total Size: 700.26 MB

Magnet: Magnet Link

Seeds: 8

Leechers: 207

Stream: Watch Online @ Movie4u

Last Updated: 2010-08-08 14:21:07 (Update Now)

Torrent added: 2008-07-11 21:34:05



VPN For Torrents

Torrent Files List


1.png (Size: 700.26 MB) (Files: 9)

 1.png

175.85 KB

 2.png

178.00 KB

 3.png

141.95 KB

 4.png

193.32 KB

 5.png

159.53 KB

 6.png

180.84 KB

 Hancock.jpg .exe

470.00 KB

 Hancock[2008]CAM.XviD[Eng].avi

698.76 MB

 Hank.jpg

36.19 KB
 

Announce URL: http://open.tracker.thepiratebay.org/announce

Torrent description

General
Complete name : Hancock[2008]CAM XviD[Eng].avi
Format : AVI
Format/Info : Audio Video Interleave
File size : 699 MiB
Duration : 1h 25mn
Overal bit rate : 1143 Kbps

Video
Format : MPEG-4 Visual
Format profile : Streaming [email protected]
Format settings, BVOP : Yes
Format settings, QPel : No
Format settings, GMC : No warppoints
Format settings, Matrix : Custom
Codec ID : XVID
Codec ID/Hint : XviD
Duration : 1h 25mn
Bit rate : 1018 Kbps
Width : 480 pixels
Height : 336 pixels
Display aspect ratio : 1.429
Frame rate : 29.970 fps
Resolution : 8 bits
Colorimetry : 4:2:0
Scan type : Progressive
Bits/(Pixel*Frame) : 0.211
Stream size : 622 MiB
Writing library : XviD 1.2.0.dev47 (UTC 2006-11-01)

Audio
Format : MPEG Audio
Format version : Version 1
Format profile : Layer 3
Codec ID : 55
Codec ID/Hint : MP3
Duration : 1h 25mn
Bit rate mode : Variable
Bit rate : 111 Kbps
Minimum bit rate : 128 Kbps
Channel(s) : 2 channels
Sampling rate : 48.0 KHz
Resolution : 16 bits
Stream size : 67.9 MiB
Writing library : LAME3.97
Encoding settings : ABR
Language : english

related torrents

Torrent name

health leech seeds Size
 


comments (0)

Main Menu