Action

Apocalypto RICO

  • Download 5x Faster
  • Download torrent
  • Direct Download
  • Rate this torrent +  |  -
Apocalypto RICO

Free and Direct Download with Usenet 300GB+ free


Torrent info

Name:Apocalypto RICO

Total Size: 1.36 GB

Magnet: Magnet Link

Seeds: 1

Leechers: 8

Stream: Watch Online @ Movie4u

Last Updated: 2010-08-05 17:48:20 (Update Now)

Torrent added: 2008-12-07 00:36:04




Torrent Files List


Apocalypto.XviD.CD1-RICO.avi (Size: 1.36 GB) (Files: 5)

 Apocalypto.XviD.CD1-RICO.avi

699.88 MB

 Apocalypto.XviD.CD2-RICO.avi

695.45 MB

 MEDIA INFO .DOC

4.77 KB

 README!-RICO.nfo

1.78 KB

 tracked_by_h33t_com.txt

0.02 KB
 

Announce URL: http://www.h33t.com:3310/announce

Torrent description

Apocalypto  RICO preview 0
General
Complete name : G:\Movies\Apocalypto_-RICO\Apocalypto.XviD.CD1-RICO.avi
Format : AVI
Format/Info : Audio Video Interleave
File size : 700 MiB
Duration : 1h 11mn
Overall bit rate : 1 374 Kbps
Writing application : VirtualDubMod 1.5.10.1 (build 2439/release)
Writing library : VirtualDubMod build 2439/release

Video
Format : MPEG-4 Visual
Format profile : [email protected]
Format settings, BVOP : Yes
Format settings, QPel : No
Format settings, GMC : No warppoints
Format settings, Matrix : Default
Muxing mode : Packed bitstream
Codec ID : XVID
Codec ID/Hint : XviD
Duration : 1h 11mn
Bit rate : 916 Kbps
Width : 656 pixels
Height : 352 pixels
Display aspect ratio : 1.864
Frame rate : 23.976 fps
Resolution : 24 bits
Colorimetry : 4:2:0
Scan type : Progressive
Bits/(Pixel*Frame) : 0.165
Stream size : 467 MiB (67%)
Writing library : XviD 1.0.3 (UTC 2004-12-20)

Audio
Format : AC-3
Format/Info : Audio Coding 3
Codec ID : 2000
Duration : 1h 11mn
Bit rate mode : Constant
Bit rate : 448 Kbps
Channel(s) : 6 channels
Channel positions : Front: L C R, Surround: L R, LFE
Sampling rate : 48.0 KHz
Stream size : 228 MiB (33%)
Alignment : Split accross interleaves
Interleave, duration : 42 ms (1.00 video frame)
Interleave, preload duration : 500 ms

related torrents

Torrent name

health leech seeds Size
 

comments (0)

Main Menu