Action

Babylon A D RICO

  • Download 5x Faster
  • Download torrent
  • Direct Download
  • Rate this torrent +  |  -
Babylon A D RICO

Anonymous and Direct Download 300GB+ free


Torrent info

Name:Babylon A D RICO

Total Size: 696.37 MB

Magnet: Magnet Link

Seeds: 1

Leechers: 8

Stream: Watch Online @ Movie4u

Last Updated: 2009-12-08 01:26:43 (Update Now)

Torrent added: 2008-12-07 00:36:03




Torrent Files List


Babylon A.D.[2008].DVDRIP.XVID.[Eng]-DUQA.srt (Size: 696.37 MB) (Files: 4)

 Babylon A.D.[2008].DVDRIP.XVID.[Eng]-DUQA.srt

44.43 KB

 Babylon A.D.[2008].DVDRIP.XVID.[Eng]-RICO.avi

696.33 MB

 MEDIA INFO.DOC

2.54 KB

 tracked_by_h33t_com.txt

0.02 KB
 

Announce URL: http://www.h33t.com:3310/announce

Torrent description

Babylon A D   RICO preview 0
General
Complete name : G:\Movies\Babylon A.D_ -RICO\Babylon A.D.[2008].DVDRIP.XVID.[Eng]-RICO.avi
Format : AVI
Format/Info : Audio Video Interleave
File size : 696 MiB
Duration : 1h 30mn
Overall bit rate : 1 079 Kbps
Writing application : VirtualDubMod 1.5.10.2 (build 2540/release)
Writing library : VirtualDubMod build 2540/release

Video
Format : MPEG-4 Visual
Format profile : Streaming [email protected]
Format settings, BVOP : Yes
Format settings, QPel : No
Format settings, GMC : No warppoints
Format settings, Matrix : Default
Muxing mode : Packed bitstream
Codec ID : XVID
Codec ID/Hint : XviD
Duration : 1h 30mn
Bit rate : 946 Kbps
Width : 640 pixels
Height : 272 pixels
Display aspect ratio : 2.35
Frame rate : 23.976 fps
Resolution : 24 bits
Colorimetry : 4:2:0
Scan type : Progressive
Bits/(Pixel*Frame) : 0.227
Stream size : 610 MiB (88%)
Writing library : XviD 1.2.0.dev47 (UTC 2006-11-01)

Audio
Format : MPEG Audio
Format version : Version 1
Format profile : Layer 3
Codec ID : 55
Codec ID/Hint : MP3
Duration : 1h 30mn
Bit rate mode : Variable
Bit rate : 120 Kbps
Channel(s) : 2 channels
Sampling rate : 48.0 KHz
Resolution : 16 bits
Stream size : 77.6 MiB (11%)
Alignment : Aligned on interleaves
Interleave, duration : 24 ms (0.58 video frame)
Interleave, preload duration : 506 ms
Writing library : LAME3.98

related torrents

Torrent name

health leech seeds Size

Babylon A d [h33t][ rico]

0 4 696.00 MB 0
 


comments (0)

Main Menu