Action

Band of BrothersH33T RICO

  • Download 5x Faster
  • Download torrent
  • Direct Download
  • Rate this torrent +  |  -
Band of BrothersH33T RICO

Download FREE And Anonymously


Torrent info

Name:Band of BrothersH33T RICO

Total Size: 6.81 GB

Magnet: Magnet Link

Seeds: 1

Leechers: 0

Stream: Watch Full Movie @ Movie4u

Last Updated: 2010-09-08 17:28:41 (Update Now)

Torrent added: 2008-12-07 00:34:48



VPN For Torrents

Torrent Files List


01 - Curahee-RICO.avi (Size: 6.81 GB) (Files: 12)

 01 - Curahee-RICO.avi

695.88 MB

 02 - Day of Days-RICO.avi

684.03 MB

 03 - Carentan-RICO.avi

698.24 MB

 04 - Replacements-RICO.avi

698.28 MB

 05 - Crossroads-RICO.avi

696.63 MB

 06 - Bastogne-RICO.avi

698.10 MB

 07 - The Breaking Point-RICO.avi

702.03 MB

 08 - The Last Patrol-RICO.avi

701.56 MB

 09 - Why We Fight-RICO.avi

700.09 MB

 10 - Points-RICO.avi

700.29 MB

 MEDIA INFO.DOC

22.64 KB

 tracked_by_h33t_com.txt

0.02 KB
 

Announce URL: http://www.h33t.com:3310/announce

Torrent description

Band of BrothersH33T RICO preview 0

General
Complete name : G:\Movies\Band of Brothers_ -RICO\02 - Day of Days-RICO.avi
Format : AVI
Format/Info : Audio Video Interleave
File size : 684 MiB
Duration : 52mn 0s
Overall bit rate : 1 839 Kbps
Writing application : Nandub v1.0rc2
Writing library : Nandub build 1852/release

Video
Format : MPEG-4 Visual
Format settings, BVOP : Yes
Format settings, QPel : No
Format settings, GMC : No warppoints
Format settings, Matrix : Default
Codec ID : DX50
Codec ID/Hint : DivX 5
Duration : 52mn 0s
Bit rate : 1 698 Kbps
Width : 640 pixels
Height : 352 pixels
Display aspect ratio : 16/9
Frame rate : 23.976 fps
Resolution : 24 bits
Scan type : Progressive
Bits/(Pixel*Frame) : 0.314
Stream size : 632 MiB (92%)
Writing library : DivX 5.0.2 (UTC 2002-05-16)

Audio
Format : MPEG Audio
Format version : Version 1
Format profile : Layer 3
Codec ID : 55
Codec ID/Hint : MP3
Duration : 52mn 0s
Bit rate mode : Constant
Bit rate : 32.0 Kbps
Channel(s) : 2 channels
Sampling rate : 48.0 KHz
Resolution : 16 bits
Stream size : 47.6 MiB (7%)
Alignment : Aligned on interleaves
Interleave, duration : 24 ms (0.58 video frame)
Interleave, preload duration : 480 ms

General
Complete name : G:\Movies\Band of Brothers_ -RICO\03 - Carentan-RICO.avi
Format : AVI
Format/Info : Audio Video Interleave
File size : 698 MiB
Duration : 1h 5mn
Overall bit rate : 1 494 Kbps
Writing application : Nandub v1.0rc2
Writing library : Nandub build 1852/release

Video
Format : MPEG-4 Visual
Format settings, BVOP : Yes
Format settings, QPel : No
Format settings, GMC : No warppoints
Format settings, Matrix : Default
Codec ID : DX50
Codec ID/Hint : DivX 5
Duration : 1h 5mn
Bit rate : 1 355 Kbps
Width : 640 pixels
Height : 352 pixels
Display aspect ratio : 16/9
Frame rate : 23.976 fps
Resolution : 24 bits
Scan type : Progressive
Bits/(Pixel*Frame) : 0.251
Stream size : 633 MiB (91%)
Writing library : DivX 5.0.2 (UTC 2002-05-16)

Audio
Format : MPEG Audio
Format version : Version 1
Format profile : Layer 3
Codec ID : 55
Codec ID/Hint : MP3
Duration : 1h 5mn
Bit rate mode : Constant
Bit rate : 32.0 Kbps
Channel(s) : 2 channels
Sampling rate : 48.0 KHz
Resolution : 16 bits
Stream size : 59.4 MiB (9%)
Alignment : Aligned on interleaves
Interleave, duration : 24 ms (0.58 video frame)
Interleave, preload duration : 480 ms

General
Complete name : G:\Movies\Band of Brothers_ -RICO\04 - Replacements-RICO.avi
Format : AVI
Format/Info : Audio Video Interleave
File size : 698 MiB
Duration : 59mn 41s
Overall bit rate : 1 635 Kbps
Writing application : Nandub v1.0rc2
Writing library : Nandub build 1852/release

Video
Format : MPEG-4 Visual
Format settings, BVOP : Yes
Format settings, QPel : No
Format settings, GMC : No warppoints
Format settings, Matrix : Default
Codec ID : DX50
Codec ID/Hint : DivX 5
Duration : 59mn 41s
Bit rate : 1 496 Kbps
Width : 640 pixels
Height : 352 pixels
Display aspect ratio : 16/9
Frame rate : 23.976 fps
Resolution : 24 bits
Scan type : Progressive
Bits/(Pixel*Frame) : 0.277
Stream size : 639 MiB (91%)
Writing library : DivX 5.0.2 (UTC 2002-05-16)

Audio
Format : MPEG Audio
Format version : Version 1
Format profile : Layer 3
Codec ID : 55
Codec ID/Hint : MP3
Duration : 59mn 41s
Bit rate mode : Constant
Bit rate : 32.0 Kbps
Channel(s) : 2 channels
Sampling rate : 48.0 KHz
Resolution : 16 bits
Stream size : 54.3 MiB (8%)
Alignment : Aligned on interleaves
Interleave, duration : 24 ms (0.58 video frame)
Interleave, preload duration : 480 ms

General
Complete name : G:\Movies\Band of Brothers_ -RICO\05 - Crossroads-RICO.avi
Format : AVI
Format/Info : Audio Video Interleave
File size : 697 MiB
Duration : 55mn 40s
Overall bit rate : 1 750 Kbps
Writing application : Nandub v1.0rc2
Writing library : Nandub build 1852/release

Video
Format : MPEG-4 Visual
Format settings, BVOP : Yes
Format settings, QPel : No
Format settings, GMC : No warppoints
Format settings, Matrix : Default
Codec ID : DX50
Codec ID/Hint : DivX 5
Duration : 55mn 40s
Bit rate : 1 611 Kbps
Width : 640 pixels
Height : 352 pixels
Display aspect ratio : 16/9
Frame rate : 23.976 fps
Resolution : 24 bits
Scan type : Progressive
Bits/(Pixel*Frame) : 0.298
Stream size : 641 MiB (92%)
Writing library : DivX 5.0.2 (UTC 2002-05-16)

Audio
Format : MPEG Audio
Format version : Version 1
Format profile : Layer 3
Codec ID : 55
Codec ID/Hint : MP3
Duration : 55mn 40s
Bit rate mode : Constant
Bit rate : 32.0 Kbps
Channel(s) : 2 channels
Sampling rate : 48.0 KHz
Resolution : 16 bits
Stream size : 50.1 MiB (7%)
Alignment : Aligned on interleaves
Interleave, duration : 24 ms (0.58 video frame)
Interleave, preload duration : 480 ms

General
Complete name : G:\Movies\Band of Brothers_ -RICO\06 - Bastogne-RICO.avi
Format : AVI
Format/Info : Audio Video Interleave
File size : 698 MiB
Duration : 1h 7mn
Overall bit rate : 1 453 Kbps
Writing application : Nandub v1.0rc2
Writing library : Nandub build 1852/release

Video
Format : MPEG-4 Visual
Format settings, BVOP : Yes
Format settings, QPel : No
Format settings, GMC : No warppoints
Format settings, Matrix : Default
Codec ID : DX50
Codec ID/Hint : DivX 5
Duration : 1h 7mn
Bit rate : 1 316 Kbps
Width : 640 pixels
Height : 352 pixels
Display aspect ratio : 16/9
Frame rate : 23.976 fps
Resolution : 24 bits
Scan type : Progressive
Bits/(Pixel*Frame) : 0.244
Stream size : 632 MiB (91%)
Writing library : DivX 5.0.2 (UTC 2002-05-16)

Audio
Format : MPEG Audio
Format version : Version 1
Format profile : Layer 3
Codec ID : 55
Codec ID/Hint : MP3
Duration : 1h 7mn
Bit rate mode : Constant
Bit rate : 32.0 Kbps
Channel(s) : 2 channels
Sampling rate : 48.0 KHz
Resolution : 16 bits
Stream size : 59.8 MiB (9%)
Alignment : Aligned on interleaves
Interleave, duration : 24 ms (0.58 video frame)
Interleave, preload duration : 480 ms

General
Complete name : G:\Movies\Band of Brothers_ -RICO\07 - The Breaking Point-RICO.avi
Format : AVI
Format/Info : Audio Video Interleave
File size : 702 MiB
Duration : 1h 12mn
Overall bit rate : 1 348 Kbps
Writing application : VirtualDubMod 1.5.1.1a (build 1639/release)
Writing library : VirtualDubMod build 1639/release

Video
Format : MPEG-4 Visual
Format settings, BVOP : Yes
Format settings, QPel : No
Format settings, GMC : 2 warppoints
Format settings, Matrix : Default
Muxing mode : Packed bitstream
Codec ID : DX50
Codec ID/Hint : DivX 5
Duration : 1h 12mn
Bit rate : 1 209 Kbps
Width : 640 pixels
Height : 352 pixels
Display aspect ratio : 16/9
Frame rate : 23.976 fps
Resolution : 24 bits
Colorimetry : 4:2:0
Scan type : Progressive
Bits/(Pixel*Frame) : 0.224
Stream size : 630 MiB (90%)
Writing library : DivX 5.0.5 (UTC 2003-04-24)

Audio
Format : MPEG Audio
Format version : Version 1
Format profile : Layer 3
Codec ID : 55
Codec ID/Hint : MP3
Duration : 1h 12mn
Bit rate mode : Variable
Bit rate : 127 Kbps
Nominal bit rate : 128 Kbps
Channel(s) : 2 channels
Sampling rate : 48.0 KHz
Resolution : 16 bits
Stream size : 65.9 MiB (9%)
Alignment : Aligned on interleaves
Interleave, duration : 24 ms (0.58 video frame)
Interleave, preload duration : 139 ms
Writing library : LAME3.93
Encoding settings : ABR

General
Complete name : G:\Movies\Band of Brothers_ -RICO\08 - The Last Patrol-RICO.avi
Format : AVI
Format/Info : Audio Video Interleave
File size : 702 MiB
Duration : 58mn 57s
Overall bit rate : 1 664 Kbps
Writing application : VirtualDubMod 1.5.1.1a (build 1639/release)
Writing library : VirtualDubMod build 1639/release

Video
Format : MPEG-4 Visual
Format settings, BVOP : Yes
Format settings, QPel : No
Format settings, GMC : 2 warppoints
Format settings, Matrix : Default
Muxing mode : Packed bitstream
Codec ID : DX50
Codec ID/Hint : DivX 5
Duration : 58mn 57s
Bit rate : 1 525 Kbps
Width : 640 pixels
Height : 352 pixels
Display aspect ratio : 16/9
Frame rate : 23.976 fps
Resolution : 24 bits
Colorimetry : 4:2:0
Scan type : Progressive
Bits/(Pixel*Frame) : 0.282
Stream size : 643 MiB (92%)
Writing library : DivX 5.0.5 (UTC 2003-04-24)

Audio
Format : MPEG Audio
Format version : Version 1
Format profile : Layer 3
Codec ID : 55
Codec ID/Hint : MP3
Duration : 58mn 57s
Bit rate mode : Variable
Bit rate : 126 Kbps
Nominal bit rate : 128 Kbps
Channel(s) : 2 channels
Sampling rate : 48.0 KHz
Resolution : 16 bits
Stream size : 53.2 MiB (8%)
Alignment : Aligned on interleaves
Interleave, duration : 24 ms (0.58 video frame)
Interleave, preload duration : 140 ms
Writing library : LAME3.93
Encoding settings : ABR

General
Complete name : G:\Movies\Band of Brothers_ -RICO\09 - Why We Fight-RICO.avi
Format : AVI
Format/Info : Audio Video Interleave
File size : 700 MiB
Duration : 58mn 9s
Overall bit rate : 1 683 Kbps
Writing application : VirtualDubMod 1.5.1.1a (build 1639/release)
Writing library : VirtualDubMod build 1639/release

Video
Format : MPEG-4 Visual
Format settings, BVOP : Yes
Format settings, QPel : No
Format settings, GMC : 2 warppoints
Format settings, Matrix : Default
Muxing mode : Packed bitstream
Codec ID : DX50
Codec ID/Hint : DivX 5
Duration : 58mn 9s
Bit rate : 1 544 Kbps
Width : 640 pixels
Height : 352 pixels
Display aspect ratio : 16/9
Frame rate : 23.976 fps
Resolution : 24 bits
Colorimetry : 4:2:0
Scan type : Progressive
Bits/(Pixel*Frame) : 0.286
Stream size : 642 MiB (92%)
Writing library : DivX 5.0.5 (UTC 2003-04-24)

Audio
Format : MPEG Audio
Format version : Version 1
Format profile : Layer 3
Codec ID : 55
Codec ID/Hint : MP3
Duration : 58mn 9s
Bit rate mode : Variable
Bit rate : 126 Kbps
Nominal bit rate : 128 Kbps
Channel(s) : 2 channels
Sampling rate : 48.0 KHz
Resolution : 16 bits
Stream size : 52.4 MiB (7%)
Alignment : Aligned on interleaves
Interleave, duration : 24 ms (0.58 video frame)
Interleave, preload duration : 140 ms
Writing library : LAME3.93
Encoding settings : ABR

General
Complete name : G:\Movies\Band of Brothers_ -RICO\10 - Points-RICO.avi
Format : AVI
Format/Info : Audio Video Interleave
File size : 700 MiB
Duration : 1h 2mn
Overall bit rate : 1 572 Kbps
Writing application : VirtualDubMod 1.5.1.1a (build 1639/release)
Writing library : VirtualDubMod build 1639/release

Video
Format : MPEG-4 Visual
Format settings, BVOP : Yes
Format settings, QPel : No
Format settings, GMC : 2 warppoints
Format settings, Matrix : Default
Muxing mode : Packed bitstream
Codec ID : DX50
Codec ID/Hint : DivX 5
Duration : 1h 2mn
Bit rate : 1 433 Kbps
Width : 640 pixels
Height : 352 pixels
Display aspect ratio : 16/9
Frame rate : 23.976 fps
Resolution : 24 bits
Colorimetry : 4:2:0
Scan type : Progressive
Bits/(Pixel*Frame) : 0.265
Stream size : 638 MiB (91%)
Writing library : DivX 5.0.5 (UTC 2003-04-24)

Audio
Format : MPEG Audio
Format version : Version 1
Format profile : Layer 3
Codec ID : 55
Codec ID/Hint : MP3
Duration : 1h 2mn
Bit rate mode : Variable
Bit rate : 126 Kbps
Nominal bit rate : 128 Kbps
Channel(s) : 2 channels
Sampling rate : 48.0 KHz
Resolution : 16 bits
Stream size : 56.3 MiB (8%)
Alignment : Aligned on interleaves
Interleave, duration : 24 ms (0.58 video frame)
Interleave, preload duration : 139 ms
Writing library : LAME3.93
Encoding settings : ABR

General
Complete name : G:\Movies\Band of Brothers_ -RICO\01 - Curahee-RICO.avi
Format : AVI
Format/Info : Audio Video Interleave
File size : 696 MiB
Duration : 1h 13mn
Overall bit rate : 1 329 Kbps
Writing application : Nandub v1.0rc2
Writing library : Nandub build 1852/release

Video
Format : MPEG-4 Visual
Format settings, BVOP : Yes
Format settings, QPel : No
Format settings, GMC : No warppoints
Format settings, Matrix : Default
Codec ID : DX50
Codec ID/Hint : DivX 5
Duration : 1h 13mn
Bit rate : 1 189 Kbps
Width : 640 pixels
Height : 352 pixels
Display aspect ratio : 16/9
Frame rate : 23.976 fps
Resolution : 24 bits
Scan type : Progressive
Bits/(Pixel*Frame) : 0.220
Stream size : 623 MiB (89%)
Writing library : DivX 5.0.2 (UTC 2002-05-16)

Audio
Format : MPEG Audio
Format version : Version 1
Format profile : Layer 3
Codec ID : 55
Codec ID/Hint : MP3
Duration : 1h 13mn
Bit rate mode : Constant
Bit rate : 32.0 Kbps
Channel(s) : 2 channels
Sampling rate : 48.0 KHz
Resolution : 16 bits
Stream size : 66.5 MiB (10%)
Alignment : Aligned on interleaves
Interleave, duration : 24 ms (0.58 video frame)
Interleave, preload duration : 480 ms

related torrents

Torrent name

health leech seeds Size
 


comments (0)

Main Menu

 

script data-cfasync="false" src="//d2ghscazvn398x.cloudfront.net/?cshgd=690275">