Comedy

BedazzledH33T RICO

  • Download 5x Faster
  • Download torrent
  • Direct Download
  • Rate this torrent +  |  -
BedazzledH33T RICO

Anonymous and Free Direct Download


Torrent info

Name:BedazzledH33T RICO

Total Size: 700.61 MB

Magnet: Magnet Link

Seeds: 1

Leechers: 4

Stream: Watch Online @ Movie4u

Last Updated: 2010-09-11 23:43:22 (Update Now)

Torrent added: 2008-12-07 00:34:43



VPN For Torrents

Torrent Files List


bedazzled-RICO.avi (Size: 700.61 MB) (Files: 3)

 bedazzled-RICO.avi

700.60 MB

 MEDIA INFO.DOC

2.48 KB

 tracked_by_h33t_com.txt

0.02 KB
 

Announce URL: http://www.h33t.com:3310/announce

Torrent description

BedazzledH33T RICO preview 0
General
Complete name : G:\Movies\Bedazzled_ -RICO\bedazzled-RICO.avi
Format : DivX
Format/Info : Hack of AVI
File size : 701 MiB
Duration : 1h 29mn
Overall bit rate : 1 096 Kbps

Video
Format : MPEG-4 Visual
Format profile : Streaming [email protected]
Format settings, BVOP : Yes
Format settings, QPel : No
Format settings, GMC : No warppoints
Format settings, Matrix : Custom
Codec ID : DX50
Codec ID/Hint : DivX 5
Duration : 1h 29mn
Bit rate : 958 Kbps
Width : 640 pixels
Height : 272 pixels
Display aspect ratio : 2.35
Frame rate : 25.000 fps
Resolution : 24 bits
Colorimetry : 4:2:0
Scan type : Progressive
Bits/(Pixel*Frame) : 0.220
Stream size : 613 MiB (87%)
Title : Video
Writing library : XviD 1.1.2 (UTC 2006-11-01)

Audio
Format : MPEG Audio
Format version : Version 1
Format profile : Layer 3
Codec ID : 55
Codec ID/Hint : MP3
Duration : 1h 29mn
Bit rate mode : Constant
Bit rate : 128 Kbps
Minimum bit rate : 128 Kbps
Channel(s) : 2 channels
Sampling rate : 48.0 KHz
Resolution : 16 bits
Stream size : 81.8 MiB (12%)
Alignment : Split accross interleaves
Interleave, duration : 40 ms (1.00 video frame)
Interleave, preload duration : 500 ms
Title : Audio
Writing library : LAME3.96r
Encoding settings : CBR

related torrents

Torrent name

health leech seeds Size
 


comments (0)

Main Menu