Comedy

Bee MovieH33T RICO

  • Download 5x Faster
  • Download torrent
  • Direct Download
  • Rate this torrent +  |  -
Bee MovieH33T RICO

Free and Direct Download with Usenet 300GB+ free


Torrent info

Name:Bee MovieH33T RICO

Total Size: 700.30 MB

Magnet: Magnet Link

Seeds: 1

Leechers: 3

Stream: Watch Online @ Movie4u

Last Updated: 2009-12-08 01:26:01 (Update Now)

Torrent added: 2008-12-07 00:34:42




Torrent Files List


Bee--RICO.avi (Size: 700.30 MB) (Files: 6)

 Bee--RICO.avi

700.29 MB

 Bee--RICO.sfv

0.16 KB

 BEE-RICO.nfo

1.40 KB

 BEE-RICO.sfv

0.16 KB

 MEDIA INFO.DOC

2.38 KB

 tracked_by_h33t_com.txt

0.02 KB
 

Announce URL: http://www.h33t.com:3310/announce

Torrent description

Bee MovieH33T RICO preview 0
General
Complete name : G:\Movies\Bee Movie_ -RICO\Bee--RICO.avi
Format : AVI
Format/Info : Audio Video Interleave
File size : 700 MiB
Duration : 1h 30mn
Overall bit rate : 1 080 Kbps
Writing application : VirtualDubMod 1.5.10.2 (build 2542/release)
Writing library : VirtualDubMod build 2542/release

Video
Format : MPEG-4 Visual
Format profile : Streaming [email protected]
Format settings, BVOP : Yes
Format settings, QPel : No
Format settings, GMC : No warppoints
Format settings, Matrix : Default
Codec ID : XVID
Codec ID/Hint : XviD
Duration : 1h 30mn
Bit rate : 752 Kbps
Width : 592 pixels
Height : 320 pixels
Display aspect ratio : 1.850
Frame rate : 23.976 fps
Resolution : 24 bits
Colorimetry : 4:2:0
Scan type : Progressive
Bits/(Pixel*Frame) : 0.166
Stream size : 488 MiB (70%)
Writing library : XviD 1.1.2 (UTC 2006-11-01)

Audio
Format : AC-3
Format/Info : Audio Coding 3
Codec ID : 2000
Duration : 1h 30mn
Bit rate mode : Constant
Bit rate : 320 Kbps
Channel(s) : 6 channels
Channel positions : Front: L C R, Surround: L R, LFE
Sampling rate : 48.0 KHz
Video delay : 80ms
Stream size : 207 MiB (30%)
Alignment : Split accross interleaves
Interleave, duration : 64 ms (1.53 video frames)
Interleave, preload duration : 64 ms

related torrents

Torrent name

health leech seeds Size
 

comments (0)

Main Menu