Music - Other

Forgiven Not Forgotten The Corrs (1996) FLAC H33TNaughty Knights

  • Download 5x Faster
  • Download torrent
  • Direct Download
  • Rate this torrent +  |  -
Forgiven Not Forgotten The Corrs (1996) FLAC H33TNaughty Knights

Free and Direct Download with Usenet.nl 300GB+ free


Torrent info

Name:Forgiven Not Forgotten The Corrs (1996) FLAC H33TNaughty Knights

Total Size: 330.66 MB

Magnet: Magnet Link

Seeds: 0

Leechers: 3

Stream: Watch Online @ Movie4u

Last Updated: 2011-07-02 17:24:08 (Update Now)

Torrent added: 2008-12-06 20:35:09





Torrent Files List


corrs 1.jpg (Size: 330.66 MB) (Files: 18)

 corrs 1.jpg

8.57 KB

 Forgiven not Forgotten Desc.txt

5.54 KB

 Track01.flac

2.33 MB

 Track02.flac

28.09 MB

 Track03.flac

31.71 MB

 Track04.flac

4.50 MB

 Track05.flac

28.15 MB

 Track06.flac

30.25 MB

 Track07.flac

28.80 MB

 Track08.flac

12.13 MB

 Track09.flac

19.77 MB

 Track10.flac

30.30 MB

 Track11.flac

33.15 MB

 Track12.flac

4.67 MB

 Track13.flac

26.16 MB

 Track14.flac

25.60 MB

 Track15.flac

25.03 MB

 tracked_by_h33t_com.txt

0.03 KB
 

Announce URL: http://www.h33t.com:3310/announce

Torrent description

*************************************
* IF.YOU.ENJOYED.THANK.ME.BY.SEEDING

I.DO.NOT.ALWAYS.READ.COMMENTS.

SEND RESEED REQUESTS TO: www.h33tfr33sp33k.h33t.com/
---------------------------------------------

Playlist:

1 Runaway
2 Leave Me Alone
3 Erin Shore (Traditional Intro)
4 Someday
5 Minstrel Boy
6 Love To Love You
7 Carraroe Jig
8 Erin Shore
9 Closer
10 Secret Life
11 Toss The Feathers
12 Right Time
13 Along With The Girls
14 Heaven Knows
15 Forgiven Not Forgotten

-----------------------------------------

Tracker ...: http://www.h33t.com:3310/announce

HASH ...: CAB40F7DC9A0D6D05F7AA3AC29F0F3075B8DF52E
-----------------------------------------
Exact Audio Copy V0.99 prebeta 4 from 23. January 2008

EAC extraction logfile from 6. December 2008, 16:34

The Corrs / Forgiven Not Forgotten

Used drive : TSSTcorpCDDVDW TS-H653N Adapter: 2 ID: 1

Read mode : Secure
Utilize accurate stream : Yes
Defeat audio cache : No
Make use of C2 pointers : No

Combined read/write offset correction : 0
Overread into Lead-In and Lead-Out : No
Fill up missing offset samples with silence : Yes
Delete leading and trailing silent blocks : No
Null samples used in CRC calculations : No
Used interface : Native Win32 interface for Win NT & 2000
Gap handling : Not detected, thus appended to previous track

Used output format : User Defined Encoder
Selected bitrate : 768 kBit/s
Quality : High
Add ID3 tag : No
Command line compressor : C:\Program Files\Exact Audio Copy\FLAC\FLAC.EXE
Additional command line options : -6 -V -T "ARTIST=%a" -T "TITLE=%t" -T "ALBUM=%g" -T "DATE=%y" -T "TRACKNUMBER=%n" -T "GENRE=%m" -T "COMMENT=%e" %s -o %d


TOC of the extracted CD

Track | Start | Length | Start sector | End sector
---------------------------------------------------------
1 | 0:00.32 | 0:27.08 | 32 | 2064
2 | 0:27.40 | 4:15.40 | 2065 | 21229
3 | 4:43.05 | 4:18.30 | 21230 | 40609
4 | 9:01.35 | 0:49.12 | 40610 | 44296
5 | 9:50.47 | 3:51.25 | 44297 | 61646
6 | 13:41.72 | 4:24.68 | 61647 | 81514
7 | 18:06.65 | 4:07.42 | 81515 | 100081
8 | 22:14.32 | 2:12.45 | 100082 | 110026
9 | 24:27.02 | 2:50.25 | 110027 | 122801
10 | 27:17.27 | 4:08.25 | 122802 | 141426
11 | 31:25.52 | 4:31.15 | 141427 | 161766
12 | 35:56.67 | 0:52.48 | 161767 | 165714
13 | 36:49.40 | 4:05.15 | 165715 | 184104
14 | 40:54.55 | 3:40.07 | 184105 | 200611
15 | 44:34.62 | 4:14.13 | 200612 | 219674


Track 1

Filename C:\Users\Violet\Desktop\output\Track01.wav

Peak level 25.6 %
Track quality 99.4 %
Copy CRC FDA64B83
Copy OK

Track 2

Filename C:\Users\Violet\Desktop\output\Track02.wav

Peak level 99.8 %
Track quality 100.0 %
Copy CRC B9C30215
Copy OK

Track 3

Filename C:\Users\Violet\Desktop\output\Track03.wav

Peak level 100.0 %
Track quality 100.0 %
Copy CRC 7635FF64
Copy OK

Track 4

Filename C:\Users\Violet\Desktop\output\Track04.wav

Peak level 60.8 %
Track quality 99.7 %
Copy CRC 49FCEB4F
Copy OK

Track 5

Filename C:\Users\Violet\Desktop\output\Track05.wav

Peak level 100.0 %
Track quality 100.0 %
Copy CRC 51118994
Copy OK

Track 6

Filename C:\Users\Violet\Desktop\output\Track06.wav

Peak level 99.9 %
Track quality 100.0 %
Copy CRC FCDC90D2
Copy OK

Track 7

Filename C:\Users\Violet\Desktop\output\Track07.wav

Peak level 100.0 %
Track quality 100.0 %
Copy CRC F8055D7E
Copy OK

Track 8

Filename C:\Users\Violet\Desktop\output\Track08.wav

Peak level 79.7 %
Track quality 100.0 %
Copy CRC E21EE027
Copy OK

Track 9

Filename C:\Users\Violet\Desktop\output\Track09.wav

Peak level 100.0 %
Track quality 99.9 %
Copy CRC 2DA16FB0
Copy OK

Track 10

Filename C:\Users\Violet\Desktop\output\Track10.wav

Peak level 100.0 %
Track quality 100.0 %
Copy CRC 10DF0A97
Copy OK

Track 11

Filename C:\Users\Violet\Desktop\output\Track11.wav

Peak level 100.0 %
Track quality 100.0 %
Copy CRC FD66288F
Copy OK

Track 12

Filename C:\Users\Violet\Desktop\output\Track12.wav

Peak level 55.1 %
Track quality 100.0 %
Copy CRC A40E0BBA
Copy OK

Track 13

Filename C:\Users\Violet\Desktop\output\Track13.wav

Peak level 99.9 %
Track quality 100.0 %
Copy CRC 56FA6D83
Copy OK

Track 14

Filename C:\Users\Violet\Desktop\output\Track14.wav

Peak level 100.0 %
Track quality 100.0 %
Copy CRC 67963061
Copy OK

Track 15

Filename C:\Users\Violet\Desktop\output\Track15.wav

Peak level 100.0 %
Track quality 100.0 %
Copy CRC 6ADC7588
Copy OK

No errors occurred

End of status report

--------------------------------------------------------------
enjoy & seed

related torrents

Torrent name

health leech seeds Size
 

comments (0)

Main Menu