Drama

16 blocks

  • Download 5x Faster
  • Download torrent
  • Direct Download
  • Rate this torrent +  |  -
16 blocks

Free and Direct Download with Usenet.nl 300GB+ free


Torrent info

Name:16 blocks

Total Size: 0.02 KB

Magnet: Magnet Link

Seeds: 0

Leechers: 0

Stream: Watch Online @ Movie4u

Last Updated: 2010-01-11 10:44:46 (Update Now)

Torrent added: 2008-12-06 02:37:10

Alternatives:16 blocks Torrents





Torrent Files List


tracked_by_h33t_com.txt (Size: 0.02 KB) (Files: 1)

 tracked_by_h33t_com.txt

0.02 KB
 

Announce URL: http://www.h33t.com:3310/announce

Torrent description




Complete name : G:\Movies\16 Blocks_RICO\16.Blocks[2006]DvDrip[Eng]-RICO.avi
Format : AVI
Format/Info : Audio Video Interleave
File size : 701 MiB
Duration : 1h 41mn
Overall bit rate : 964 Kbps
Writing application : VirtualDubMod 1.5.10.1 (build 2366/release)
Writing library : VirtualDubMod build 2366/release

Video
Format : MPEG-4 Visual
Format profile : Streaming [email protected]
Format settings, BVOP : Yes
Format settings, QPel : No
Format settings, GMC : No warppoints
Format settings, Matrix : Default
Codec ID : DX50
Codec ID/Hint : DivX 5
Duration : 1h 41mn
Bit rate : 843 Kbps
Width : 588 pixels
Height : 240 pixels
Display aspect ratio : 2.450
Frame rate : 23.976 fps
Resolution : 24 bits
Colorimetry : 4:2:0
Scan type : Progressive
Bits/(Pixel*Frame) : 0.249
Stream size : 613 MiB (87%)
Writing library : XviD 1.0.3 (UTC 2004-12-20)

Audio
Format : MPEG Audio
Format version : Version 1
Format profile : Layer 3
Codec ID : 55
Codec ID/Hint : MP3
Duration : 1h 41mn
Bit rate mode : Constant
Bit rate : 112 Kbps
Channel(s) : 2 channels
Sampling rate : 48.0 KHz
Resolution : 16 bits
Stream size : 81.5 MiB (12%)
Alignment : Aligned on interleaves
Interleave, duration : 42 ms (1.00 video frame)
Interleave, preload duration : 504 ms

related torrents

Torrent name

health leech seeds Size
 

comments (0)

Main Menu