Drama

50 First Dates

  • Download 5x Faster
  • Download torrent
  • Direct Download
  • Rate this torrent +  |  -
50 First Dates

Anonymous and Direct Download 300GB+ free


Torrent info

Name:50 First Dates

Total Size: 699.79 MB

Magnet: Magnet Link

Seeds: 0

Leechers: 0

Stream: Watch Online @ Movie4u

Last Updated: 0000-00-00 00:00:00 (Update Now)

Torrent added: 2008-12-06 02:37:10




Torrent Files List


50 First Dates (2004)-RICO.avi (Size: 699.79 MB) (Files: 5)

 50 First Dates (2004)-RICO.avi

699.78 MB

 50 First Dates-RICO.nfo

1.27 KB

 50 first dates.jpg

5.44 KB

 MEDIA INFO.doc

2.51 KB

 Tracked by WWW.H33T.com.txt

0.02 KB
 

Announce URL: http://www.h33t.com:3310/announce

Torrent description

General
Complete name : G:\Movies\50 First Dates_ -RICO\50 First Dates (2004)-RICO.avi
Format : AVI
Format/Info : Audio Video Interleave
File size : 700 MiB
Duration : 1h 39mn
Overall bit rate : 987 Kbps
Writing application : Nandub v1.0rc2
Writing library : Nandub build 1852/release

Video
Format : MPEG-4 Visual
Format profile : Streaming [email protected]
Format settings, BVOP : Yes
Format settings, QPel : No
Format settings, GMC : No warppoints
Format settings, Matrix : Default
Muxing mode : Packed bitstream
Codec ID : XVID
Codec ID/Hint : XviD
Duration : 1h 39mn
Bit rate : 843 Kbps
Width : 576 pixels
Height : 240 pixels
Display aspect ratio : 2.400
Frame rate : 23.976 fps
Resolution : 24 bits
Colorimetry : 4:2:0
Scan type : Progressive
Bits/(Pixel*Frame) : 0.254
Stream size : 597 MiB (85%)
Writing library : XviD 1.0.0 RC4 (Hola) (UTC 2004-04-05)

Audio
Format : MPEG Audio
Format version : Version 1
Format profile : Layer 3
Codec ID : 55
Codec ID/Hint : MP3
Duration : 1h 39mn
Bit rate mode : Variable
Bit rate : 132 Kbps
Channel(s) : 2 channels
Sampling rate : 48.0 KHz
Resolution : 16 bits
Stream size : 93.5 MiB (13%)
Alignment : Aligned on interleaves
Interleave, duration : 24 ms (0.58 video frame)
Interleave, preload duration : 244 ms
Writing library : LAME3.89 (beta)

related torrents

Torrent name

health leech seeds Size

50 First Dates (2004)

0 0 699.16 MB 0
 


comments (0)

Main Menu