Drama

50 First Dates RICO

  • Download 5x Faster
  • Download torrent
  • Direct Download
  • Rate this torrent +  |  -
50 First Dates RICO

Anonymous and Free Direct Download 300GB+


Torrent info

Name:50 First Dates RICO

Total Size: 699.79 MB

Magnet: Magnet Link

Seeds: 2

Leechers: 9

Stream: Watch Online @ Movie4u

Last Updated: 2010-07-13 19:37:40 (Update Now)

Torrent added: 2008-12-06 02:37:05



VPN For Torrents

Torrent Files List


50 First Dates (2004)-RICO.avi (Size: 699.79 MB) (Files: 5)

 50 First Dates (2004)-RICO.avi

699.78 MB

 50 First Dates-RICO.nfo

1.27 KB

 50 first dates.jpg

5.44 KB

 MEDIA INFO.doc

2.51 KB

 tracked_by_h33t_com.txt

0.02 KB
 

Announce URL: http://www.h33t.com:3310/announce

Torrent description

50 First Dates   RICO preview 0
General
Complete name : G:\\Movies\\A few Good Man_ -RICO\\Tom Cruise - Jack Nicholson - A Few Good Men (Divx)RICO.avi
Format : AVI
Format/Info : Audio Video Interleave
File size : 701 MiB
Duration : 2h 12mn
Overall bit rate : 740 Kbps
Writing library : VirtualDub build 11759/release

Video
Format : MPEG-4 Visual
Codec ID : DIV3
Codec ID/Hint : DivX 3 Low
Duration : 2h 12mn
Bit rate : 602 Kbps
Width : 480 pixels
Height : 208 pixels
Display aspect ratio : 2.35
Frame rate : 25.000 fps
Resolution : 24 bits
Bits/(Pixel*Frame) : 0.241
Stream size : 570 MiB (81%)

Audio
Format : MPEG Audio
Format version : Version 1
Format profile : Layer 3
Codec ID : 55
Codec ID/Hint : MP3
Duration : 2h 12mn
Bit rate mode : Constant
Bit rate : 128 Kbps
Channel(s) : 2 channels
Sampling rate : 44.1 KHz
Resolution : 16 bits
Stream size : 121 MiB (17%)
Alignment : Split accross interleaves
Interleave, duration : 40 ms (1.00 video frame)
Interleave, preload duration : 466 ms

related torrents

Torrent name

health leech seeds Size

50 First Dates [ RICO]

0 0 699.79 MB 0

50 First Dates (2004)

31 103 751.17 MB 0
 


comments (0)

Main Menu