Drama

A few Good Man RICO

  • Download 5x Faster
  • Download torrent
  • Direct Download
  • Rate this torrent +  |  -
A few Good Man RICO

Free and Direct Download with Usenet.nl 300GB+ free


Torrent info

Name:A few Good Man RICO

Total Size: 700.55 MB

Magnet: Magnet Link

Seeds: 0

Leechers: 0

Stream: Watch Online @ Movie4u

Last Updated: 2015-02-14 05:37:28 (Update Now)

Torrent added: 2008-12-06 02:37:05





Torrent Files List


MEDIA INFO.doc (Size: 700.55 MB) (Files: 3)

 MEDIA INFO.doc

1.97 KB

 Tom Cruise - Jack Nicholson - A Few Good Men (Divx)RICO.avi

700.54 MB

 tracked_by_h33t_com.txt

0.02 KB
 

tracker

leech seeds
 

Torrent description

A few Good Man   RICO preview 0
General
Complete name : G:\Movies\A few Good Man_ -RICO\Tom Cruise - Jack Nicholson - A Few Good Men (Divx)RICO.avi
Format : AVI
Format/Info : Audio Video Interleave
File size : 701 MiB
Duration : 2h 12mn
Overall bit rate : 740 Kbps
Writing library : VirtualDub build 11759/release

Video
Format : MPEG-4 Visual
Codec ID : DIV3
Codec ID/Hint : DivX 3 Low
Duration : 2h 12mn
Bit rate : 602 Kbps
Width : 480 pixels
Height : 208 pixels
Display aspect ratio : 2.35
Frame rate : 25.000 fps
Resolution : 24 bits
Bits/(Pixel*Frame) : 0.241
Stream size : 570 MiB (81%)

Audio
Format : MPEG Audio
Format version : Version 1
Format profile : Layer 3
Codec ID : 55
Codec ID/Hint : MP3
Duration : 2h 12mn
Bit rate mode : Constant
Bit rate : 128 Kbps
Channel(s) : 2 channels
Sampling rate : 44.1 KHz
Resolution : 16 bits
Stream size : 121 MiB (17%)
Alignment : Split accross interleaves
Interleave, duration : 40 ms (1.00 video frame)
Interleave, preload duration : 466 ms

related torrents

Torrent name

health leech seeds Size

A Few Good Men

44 45 2.52 GB 0
 

comments (0)

Main Menu