TV - Other

Home & Away (11th of July 2008) PDTV (Xvid) xtremespeeds net

  • Download 5x Faster
  • Download torrent
  • Direct Download
  • Rate this torrent +  |  -
Home & Away (11th of July 2008) PDTV (Xvid) xtremespeeds net

Free and Direct Download with Usenet 300GB+ free


Torrent info

Name:Home & Away (11th of July 2008) PDTV (Xvid) xtremespeeds net

Total Size: 174.99 MB

Magnet: Magnet Link

Seeds: 1

Leechers: 0

Stream: Watch Online @ Movie4u

Last Updated: 2010-07-26 02:58:53 (Update Now)

Torrent added: 2008-07-11 15:50:25




Torrent Files List


Home & Away (11th July 2008) [PDTV (Xvid)].avi (Size: 174.99 MB) (Files: 2)

 Home & Away (11th July 2008) [PDTV (Xvid)].avi

174.99 MB

 Home & Away (11th July 2008) [PDTV (Xvid)].nfo

2.44 KB
 

Announce URL: http://xtremespeeds.net/announce.php?passkey=tssespecialtorrentv1byxamsep2007

Torrent description

Home & Away (11th July 2008) [PDTV (Xvid)].avi

website:-
http://www.five.tv/programmes/homeandaway/

Home and Away (Soap)
Time - 14:15 - 14:50 (35 minutes long)
When - Friday 11th July on five
Can Martha keep up her deception? Ross tells Morag the truth about the other woman in his life. Kirsty arrives in Summer Bay and has a big decision to make.
Starring: Mark Furze, Todd Lasance, Steve Vidler, Conrad Coleby, Tessa James
(Subtitles, Audio Described, U)


Video Info:-

Complete name : Home & Away (11th July 2008) [PDTV (Xvid)].avi
Format : AVI
Format/Info : Audio Video Interleave
File size : 175 MiB
Duration : 21mn 27s
Overal bit rate : 1140 Kbps
Writing application : VirtualDubMod 1.5.4.1 (build 2178/release)
Writing library : VirtualDubMod build 2178/release

Video
Format : MPEG-4 Visual
Format settings, BVOP : No
Format settings, QPel : No
Format settings, GMC : 0 warppoint
Format settings, Matrix : Default
Codec ID : XVID
Codec ID/Hint : XviD
Duration : 21mn 27s
Bit rate : 1005 Kbps
Width : 640 pixels
Height : 368 pixels
Display aspect ratio : 16/9
Frame rate : 25.000 fps
Resolution : 8 bits
Colorimetry : 4:2:0
Scan type : Progressive
Bits/(Pixel*Frame) : 0.171
Stream size : 154 MiB
Writing library : XviD 1.0.1
Writing library/Date : UTC 2004-06-05

Audio
Format : MPEG Audio
Format version : Version 1 / Layer 3
Codec ID : 55
Codec ID/Hint : MP3
Duration : 21mn 27s
Bit rate mode : CBR
Bit rate : 128 Kbps
Minimum bit rate : 128 Kbps
Channel(s) : 2 channels
Sampling rate : 48.0 KHz
Resolution : 16 bits
Stream size : 19.6 MiB
Writing library : LAME3.97
Encoding settings : CBR

related torrents

Torrent name

health leech seeds Size
 

comments (0)

Main Menu