Action

16 Blocks Trojan Horse

  • Download 5x Faster
  • Download torrent
  • Direct Download
  • Rate this torrent +  |  -
16 Blocks Trojan Horse

Anonymous and Direct Download 300GB+ free


Torrent info

Name:16 Blocks Trojan Horse

Total Size: 701.46 MB

Magnet: Magnet Link

Seeds: 0

Leechers: 0

Stream: Watch Online @ Movie4u

Last Updated: 2010-09-16 16:18:53 (Update Now)

Torrent added: 2008-12-05 20:34:19




Torrent Files List


16.Blocks[2006]DvDrip[Eng]-aXXo.avi (Size: 701.46 MB) (Files: 1)

 16.Blocks[2006]DvDrip[Eng]-aXXo.avi

701.46 MB
 

Announce URL: http://www.h33t.com:3310/announce

Torrent description

General
Complete name : G:\Movies\16 Blocks_ Trojan_Horse\16.Blocks[2006]DvDrip[Eng]-TH.avi
Format : AVI
Format/Info : Audio Video Interleave
File size : 701 MiB
Duration : 1h 41mn
Overall bit rate : 964 Kbps
Writing application : VirtualDubMod 1.5.10.1 (build 2366/release)
Writing library : VirtualDubMod build 2366/release

Video
Format : MPEG-4 Visual
Format profile : Streaming [email protected]
Format settings, BVOP : Yes
Format settings, QPel : No
Format settings, GMC : No warppoints
Format settings, Matrix : Default
Codec ID : DX50
Codec ID/Hint : DivX 5
Duration : 1h 41mn
Bit rate : 843 Kbps
Width : 588 pixels
Height : 240 pixels
Display aspect ratio : 2.450
Frame rate : 23.976 fps
Resolution : 24 bits
Colorimetry : 4:2:0
Scan type : Progressive
Bits/(Pixel*Frame) : 0.249
Stream size : 613 MiB (87%)
Writing library : XviD 1.0.3 (UTC 2004-12-20)

Audio
Format : MPEG Audio
Format version : Version 1
Format profile : Layer 3
Codec ID : 55
Codec ID/Hint : MP3
Duration : 1h 41mn
Bit rate mode : Constant
Bit rate : 112 Kbps
Channel(s) : 2 channels
Sampling rate : 48.0 KHz
Resolution : 16 bits
Stream size : 81.5 MiB (12%)
Alignment : Aligned on interleaves
Interleave, duration : 42 ms (1.00 video frame)
Interleave, preload duration : 504 ms

related torrents

Torrent name

health leech seeds Size

16 Blocks (2006) mp4

0 0 942.53 MB 0
 


comments (0)

Main Menu