Music - Other

Rihanna Good Girl Gone Bad Reloaded 2008 FLAC iNT

  • Download 5x Faster
  • Download torrent
  • Direct Download
  • Rate this torrent +  |  -
Rihanna Good Girl Gone Bad Reloaded 2008 FLAC iNT

Anonymous and Free Direct Download 300GB+


Torrent info

Name:Rihanna Good Girl Gone Bad Reloaded 2008 FLAC iNT

Total Size: 413.89 MB

Magnet: Magnet Link

Seeds: 0

Leechers: 0

Stream: Watch Online @ Movie4u

Last Updated: 2016-01-29 10:58:52 (Update Now)

Torrent added: 2008-12-05 08:39:40



VPN For Torrents

Torrent Files List


01 Umbrella (feat. Jay-Z).flac (Size: 413.89 MB) (Files: 18)

 01 Umbrella (feat. Jay-Z).flac

35.31 MB

 02 Push Up On Me.flac

23.28 MB

 03 Don't Stop The Music.flac

32.14 MB

 04 Breakin' Dishes.flac

25.26 MB

 05 Shut Up And Drive.flac

26.25 MB

 06 Hate That I Love You (feat. Ne-Yo).flac

25.26 MB

 07 Say It.flac

30.20 MB

 08 Sell Me Candy.flac

21.01 MB

 09 Lemme Get That.flac

25.55 MB

 10 Rehab.flac

35.30 MB

 11 Question Existing.flac

30.06 MB

 12 Good Girl Gone Bad.flac

26.02 MB

 13 Disturbia.flac

28.53 MB

 14 Take A Bow.flac

25.40 MB

 15 If I Never See Your Face Again (feat. Maroon 5).flac

24.32 MB

 Good Girl Gone Bad Reloaded.cue

2.87 KB

 Rihanna - Good Girl Gone Bad Reloaded.m3u

1.01 KB

 Rihanna - Good Girl Gone Bad Reloaded.nfo

6.66 KB
 

tracker

leech seeds
 

Torrent description

Exact Audio Copy V0.99 prebeta 4 from 23. January 2008

EAC extraction logfile from 25. June 2008, 14:05

Rihanna / Good Girl Gone Bad: Reloaded

Used drive : _NEC DVD_RW ND-3520AW Adapter: 2 ID: 1

Read mode : Secure
Utilize accurate stream : Yes
Defeat audio cache : Yes
Make use of C2 pointers : No

Read offset correction : 48
Overread into Lead-In and Lead-Out : No
Fill up missing offset samples with silence : Yes
Delete leading and trailing silent blocks : No
Null samples used in CRC calculations : Yes
Used interface : Native Win32 interface for Win NT & 2000
Gap handling : Appended to previous track

Used output format : User Defined Encoder
Selected bitrate : 256 kBit/s
Quality : High
Add ID3 tag : No
Command line compressor : C:Program Files (x86)FLACflac.exe
Additional command line options : -V -8 -T "artist=%a" -T "title=%t" -T "album=%g" -T "date=%y" -T "tracknumber=%n" -T "genre=%m" %s


TOC of the extracted CD

Track | Start | Length | Start sector | End sector
---------------------------------------------------------
1 | 0:00.00 | 4:35.74 | 0 | 20698
2 | 4:35.74 | 3:15.03 | 20699 | 35326
3 | 7:51.02 | 4:27.06 | 35327 | 55357
4 | 12:18.08 | 3:20.43 | 55358 | 70400
5 | 15:38.51 | 3:33.21 | 70401 | 86396
6 | 19:11.72 | 3:38.71 | 86397 | 102817
7 | 22:50.68 | 4:10.50 | 102818 | 121617
8 | 27:01.43 | 2:46.37 | 121618 | 134104
9 | 29:48.05 | 3:41.02 | 134105 | 150681
10 | 33:29.07 | 4:54.54 | 150682 | 172785
11 | 38:23.61 | 4:06.46 | 172786 | 191281
12 | 42:30.32 | 3:33.16 | 191282 | 207272
13 | 46:03.48 | 3:58.47 | 207273 | 225169
14 | 50:02.20 | 3:49.31 | 225170 | 242375
15 | 53:51.51 | 3:18.18 | 242376 | 257243


Track 1

Filename C:StuffEAC-RipsRihanna - Good Girl Gone Bad Reloaded - 2008 [FLAC]?1 Umbrella (feat. Jay-Z).wav

Pre-gap length 0:00:02.00

Peak level 99.9 %
Track quality 100.0 %
Test CRC 92E85FAA
Copy CRC 92E85FAA
Track not present in AccurateRip database
Copy OK

Track 2

Filename C:StuffEAC-RipsRihanna - Good Girl Gone Bad Reloaded - 2008 [FLAC]?2 Push Up On Me.wav

Peak level 100.0 %
Track quality 100.0 %
Test CRC 6DBEDE9C
Copy CRC 6DBEDE9C
Track not present in AccurateRip database
Copy OK

Track 3

Filename C:StuffEAC-RipsRihanna - Good Girl Gone Bad Reloaded - 2008 [FLAC]?3 Don't Stop The Music.wav

Peak level 99.9 %
Track quality 100.0 %
Test CRC DE53459B
Copy CRC DE53459B
Track not present in AccurateRip database
Copy OK

Track 4

Filename C:StuffEAC-RipsRihanna - Good Girl Gone Bad Reloaded - 2008 [FLAC]?4 Breakin' Dishes.wav

Peak level 99.9 %
Track quality 99.9 %
Test CRC 4198DC92
Copy CRC 4198DC92
Track not present in AccurateRip database
Copy OK

Track 5

Filename C:StuffEAC-RipsRihanna - Good Girl Gone Bad Reloaded - 2008 [FLAC]?5 Shut Up And Drive.wav

Peak level 99.9 %
Track quality 100.0 %
Test CRC 621405D4
Copy CRC 621405D4
Track not present in AccurateRip database
Copy OK

Track 6

Filename C:StuffEAC-RipsRihanna - Good Girl Gone Bad Reloaded - 2008 [FLAC]?6 Hate That I Love You (feat. Ne-Yo).wav

Pre-gap length 0:00:01.00

Peak level 97.6 %
Track quality 100.0 %
Test CRC D23BD7F7
Copy CRC D23BD7F7
Track not present in AccurateRip database
Copy OK

Track 7

Filename C:StuffEAC-RipsRihanna - Good Girl Gone Bad Reloaded - 2008 [FLAC]?7 Say It.wav

Peak level 99.9 %
Track quality 100.0 %
Test CRC 7A3F8E1A
Copy CRC 7A3F8E1A
Track not present in AccurateRip database
Copy OK

Track 8

Filename C:StuffEAC-RipsRihanna - Good Girl Gone Bad Reloaded - 2008 [FLAC]?8 Sell Me Candy.wav

Peak level 99.9 %
Track quality 100.0 %
Test CRC 324D616A
Copy CRC 324D616A
Track not present in AccurateRip database
Copy OK

Track 9

Filename C:StuffEAC-RipsRihanna - Good Girl Gone Bad Reloaded - 2008 [FLAC]?9 Lemme Get That.wav

Pre-gap length 0:00:01.36

Peak level 99.9 %
Track quality 100.0 %
Test CRC 49502CB2
Copy CRC 49502CB2
Track not present in AccurateRip database
Copy OK

Track 10

Filename C:StuffEAC-RipsRihanna - Good Girl Gone Bad Reloaded - 2008 [FLAC]10 Rehab.wav

Peak level 99.9 %
Track quality 100.0 %
Test CRC E7099D5D
Copy CRC E7099D5D
Track not present in AccurateRip database
Copy OK

Track 11

Filename C:StuffEAC-RipsRihanna - Good Girl Gone Bad Reloaded - 2008 [FLAC]11 Question Existing.wav

Peak level 99.9 %
Track quality 100.0 %
Test CRC A5347C73
Copy CRC A5347C73
Track not present in AccurateRip database
Copy OK

Track 12

Filename C:StuffEAC-RipsRihanna - Good Girl Gone Bad Reloaded - 2008 [FLAC]12 Good Girl Gone Bad.wav

Pre-gap length 0:00:01.12

Peak level 99.9 %
Track quality 100.0 %
Test CRC 19E2635C
Copy CRC 19E2635C
Track not present in AccurateRip database
Copy OK

Track 13

Filename C:StuffEAC-RipsRihanna - Good Girl Gone Bad Reloaded - 2008 [FLAC]13 Disturbia.wav

Peak level 93.2 %
Track quality 100.0 %
Test CRC 0D1D9012
Copy CRC 0D1D9012
Track not present in AccurateRip database
Copy OK

Track 14

Filename C:StuffEAC-RipsRihanna - Good Girl Gone Bad Reloaded - 2008 [FLAC]14 Take A Bow.wav

Peak level 83.6 %
Track quality 100.0 %
Test CRC 24604771
Copy CRC 24604771
Track not present in AccurateRip database
Copy OK

Track 15

Filename C:StuffEAC-RipsRihanna - Good Girl Gone Bad Reloaded - 2008 [FLAC]15 If I Never See Your Face Again (feat. Maroon 5).wav

Peak level 100.0 %
Track quality 99.9 %
Test CRC F60FD175
Copy CRC F60FD175
Track not present in AccurateRip database
Copy OK


None of the tracks are present in the AccurateRip database

No errors occurred

End of status report


related torrents

Torrent name

health leech seeds Size
 


comments (0)

Main Menu