Drama

The Inn Of The Sixth Happiness 1958 x264 mp4

  • Download 5x Faster
  • Download torrent
  • Direct Download
  • Rate this torrent +  |  -
The Inn Of The Sixth Happiness 1958 x264 mp4

Free and Direct Download with Usenet.nl 300GB+ free


Torrent info

Name:The Inn Of The Sixth Happiness 1958 x264 mp4

Total Size: 1.37 GB

Magnet: Magnet Link

Seeds: 0

Leechers: 1

Stream: Watch Online @ Movie4u

Last Updated: 2015-09-20 22:32:38 (Update Now)

Torrent added: 2008-12-04 08:35:25





Torrent Files List


The Inn Of The Sixth Happiness.1958.x264.CD1.mp4 (Size: 1.37 GB) (Files: 3)

 The Inn Of The Sixth Happiness.1958.x264.CD1.mp4

699.71 MB

 The Inn Of The Sixth Happiness.1958.x264.CD2.mp4

700.16 MB

 The Inn Of The Sixth Happiness.txt

4.30 KB
 

tracker

leech seeds
 

Torrent description

Title:
The Inn Of The Sixth Happiness
Director:
Mark Robson
Writers:
Isobel Lennart (screenplay)
Alan Burgess (novel)
Release Date:
19 December 1958 (West Germany)
Genre:
Biography | Drama
Plot:
All her life Englishwoman Gladys Aylward knew that China was the place where she belonged. Not qualified to be sent there as a missionary...
Awards:
Nominated for Oscar. Another 3 wins & 5 nominations
Cast
(Complete credited cast)
Ingrid Bergman ... Gladys Aylward
Curd Jürgens ... Capt. Lin Nan (as Curt Jurgens)
Robert Donat ... The Mandarin of Yang Cheng
Michael David ... Hok-A
Athene Seyler ... Jeannie Lawson
Ronald Squire ... Sir Francis Jamison
Moultrie Kelsall ... Dr. Robinson
Richard Wattis ... Mr. Murfin
Peter Chong ... Yang
Tsai Chin ... Sui-Lan
Edith Sharpe ... Secretary at China Inland Mission
Joan Young ... Sir Francis' cook
Lian-Shin Yang ... Woman with baby
Noel Hood ... Miss Thompson (as Noël Hood)
Burt Kwouk ... Li

File Info:
The Inn Of The Sixth Happiness.1958.x264.CD1.mp4
General
Format : MPEG-4
Format profile : Base Media
Codec ID : isom
File size : 700 MiB
Duration : 1h 21mn
Overall bit rate : 1 195 Kbps
Encoded date : UTC 2008-12-03 03:18:08
Tagged date : UTC 2008-12-03 03:18:08
Video #1
Format : AVC
Format/Info : Advanced Video Codec
Format profile : [email protected]
Format settings, CABAC : Yes
Format settings, ReFrames : 3 frames
Codec ID : avc1
Codec ID/Info : Advanced Video Coding
Duration : 1h 21mn
Bit rate mode : Variable
Bit rate : 1 140 Kbps
Maximum bit rate : 3 754 Kbps
Width : 704 pixels
Height : 304 pixels
Display aspect ratio : 2.35
Frame rate mode : Constant
Frame rate : 23.976 fps
Resolution : 24 bits
Colorimetry : 4:2:0
Scan type : Progressive
Bits/(Pixel*Frame) : 0.222
Stream size : 641 MiB (92%)
Writing library : x264 core 65 r1040M 1591275
Encoded date : UTC 2008-12-03 03:15:59
Tagged date : UTC 2008-12-03 03:20:14
Audio #2
Format : AAC
Format/Info : Advanced Audio Codec
Format version : Version 4
Format profile : LC
Format settings, SBR : No
Codec ID : 40
Duration : 1h 21mn
Bit rate mode : Variable
Bit rate : 96.0 Kbps
Maximum bit rate : 140 Kbps
Channel(s) : 2 channels
Channel positions : L R
Sampling rate : 48.0 KHz
Resolution : 16 bits
Stream size : 56.2 MiB (8%)
Encoded date : UTC 2008-12-03 03:17:34
Tagged date : UTC 2008-12-03 03:20:14

The Inn Of The Sixth Happiness.1958.x264.CD2.mp4.....
.......

related torrents

Torrent name

health leech seeds Size
 

comments (0)

Main Menu