Thriller

Tattoo avi

  • Download 5x Faster
  • Download torrent
  • Direct Download
  • Rate this torrent +  |  -
Tattoo avi

Anonymous and Direct Download 300GB+ free


Torrent info

Name:Tattoo avi

Total Size: 1.37 GB

Magnet: Magnet Link

Seeds: 1

Leechers: 3

Stream: Watch Online @ Movie4u

Last Updated: 2010-12-21 00:09:06 (Update Now)

Torrent added: 2008-12-03 06:32:51

Alternatives:Tattoo avi Torrents




Torrent Files List


Tattoo.avi (Size: 1.37 GB) (Files: 1)

 Tattoo.avi

1.37 GB
 

Announce URL: http://tracker.tntvillage.scambioetico.org:2710/announce

Torrent description

Tattoo, [XviD - Ita Ac3][www.tntvillage.scambioetico.org]

Scheda del film

Titolo: Tattoo
Titolo originale: Tattoo
Nazionalità: Germania
Anno: 2002
Genere: Thriller
Regia: Robert Schwentke
Produzione: B.A. Produktion, Lounge Entertainment GmbH, Studio Canal
Distribuzione: Keyfilms
Data di uscita: 2002 (cinema)

Cast

August Diehl, Christian Redl, Nadeshda Brennicke

Scheda tecnica del DivX (Mediainfo)

General
Complete name : Tattoo.avi
Format : AVI
Format/Info : Audio Video Interleave
File size : 1.37 GiB
Duration : 1h 44mn
Overall bit rate : 1 874 Kbps
Writing application : VirtualDubMod 1.5.4.1 (build 2178/release)
Writing library : VirtualDubMod build 2178/release

Video
Format : MPEG-4 Visual
Format profile : Streaming [email protected]
Format settings, BVOP : No
Format settings, QPel : No
Format settings, GMC : No warppoints
Format settings, Matrix : Custom
Codec ID : XVID
Codec ID/Hint : XviD
Duration : 1h 44mn
Bit rate : 1 419 Kbps
Width : 720 pixels
Height : 304 pixels
Display aspect ratio : 2.35
Frame rate : 25.000 fps
Resolution : 24 bits
Colorimetry : 4:2:0
Scan type : Progressive
Bits/(Pixel*Frame) : 0.259
Stream size : 1.04 GiB (76%)
Writing library : XviD 1.2.0.dev47 (UTC 2006-11-01)

Audio
Format : AC-3
Format/Info : Audio Coding 3
Codec ID : 2000
Duration : 1h 44mn
Bit rate mode : Constant
Bit rate : 448 Kbps
Channel(s) : 6 channels
Channel positions : Front: L C R, Surround: L R, LFE
Sampling rate : 48.0 KHz
Stream size : 335 MiB (24%)
Alignment : Aligned on interleaves
Interleave, duration : 96 ms (2.40 video frames)
Interleave, preload duration : 96 ms
Language : Italiano

related torrents

Torrent name

health leech seeds Size
 


comments (0)

Main Menu