Classic

Viaggio Italiano Andrea Bocelli (1998) H33TNaughty Knights

  • Download 5x Faster
  • Download torrent
  • Direct Download
  • Rate this torrent +  |  -
Viaggio Italiano Andrea Bocelli (1998) H33TNaughty Knights

Free and Direct Download with Usenet 300GB+ free


Torrent info

Name:Viaggio Italiano Andrea Bocelli (1998) H33TNaughty Knights

Total Size: 318.47 MB

Magnet: Magnet Link

Seeds: 0

Leechers: 0

Stream: Watch Online @ Movie4u

Last Updated: 2015-09-28 12:49:11 (Update Now)

Torrent added: 2008-12-02 04:35:25




Torrent Files List


EAC.log (Size: 318.47 MB) (Files: 19)

 EAC.log

4.91 KB

 Track01.flac

16.42 MB

 Track02.flac

22.73 MB

 Track03.flac

16.69 MB

 Track04.flac

11.49 MB

 Track05.flac

19.00 MB

 Track06.flac

19.86 MB

 Track07.flac

21.33 MB

 Track08.flac

26.87 MB

 Track09.flac

25.35 MB

 Track10.flac

25.10 MB

 Track11.flac

30.87 MB

 Track12.flac

19.97 MB

 Track13.flac

20.72 MB

 Track14.flac

21.36 MB

 Track15.flac

0.98 MB

 Track16.flac

19.72 MB

 tracked_by_h33t_com.txt

0.03 KB

 Viaggio Italiano Desc.txt

18.16 KB
 

tracker

leech seeds
 

Torrent description

*************************************
* IF.YOU.ENJOYED.THANK.ME.BY.SEEDING

I.DO.NOT.ALWAYS.READ.COMMENTS.

SEND RESEED REQUESTS TO: www.h33tfr33sp33k.h33t.com/
---------------------------------------------
Viaggio Italiano Andrea Bocelli (1998) H33TNaughty Knights preview 0
---------------------------------------------
Playlist

1 Turandot/"Nessun Dorma"
2 Arlesiana/"Lamento Di Federico"
3 Macbeth/"Ah, La Paterna Mano"
4 Rigoletto/"La Donna È Mobile"
5 Elisir d'Amore/"Una Furtiva Lagrima"
6 Panis Angelicus
7 Ave Maria
8 O Sole Mio
9 Core N'Grato
10 Santa Lucia Luntana
11 I' Te Vurria Vasà
12 Tu, 'ca Nun Chiagne!
13 Marinarello
14 Piscatore 'e Pusilleco
15 Messaggio Bocelli (Message Bocelli)
16 Adeste Fideles (Bonus Track) [*]
-----------------------------------------
FLAC converted with EAC

Tracker ......: http://www.h33t.com:3310/announce

HASH .........: 9A7EA860B66A0D75E27D45226EFB51F3F10407D0

-----------------------------------------
Mediainfo log of quality

General
Complete name : C:\Users\Violet\Desktop\Viaggio Italiano Andrea Bocelli (1998) [H33T][Naughty Knights]\Track01.flac
Format : FLAC
Format/Info : Free Lossless Audio Codec
File size : 16.4 MiB
Duration : 3mn 14s
Overall bit rate : 708 Kbps
Album : Viaggio Italiano
Track name : Track01
Track name/Position : 01
Performer : Andrea Bocelli
Genre : Classical
Comment : Track 1

Audio
Format : FLAC
Format/Info : Free Lossless Audio Codec
Duration : 3mn 14s
Bit rate mode : Variable
Bit rate : 707 Kbps
Channel(s) : 2 channels
Sampling rate : 44.1 KHz
Resolution : 16 bits
Stream size : 16.4 MiB (100%)

General
Complete name : C:\Users\Violet\Desktop\Viaggio Italiano Andrea Bocelli (1998) [H33T][Naughty Knights]\Track02.flac
Format : FLAC
Format/Info : Free Lossless Audio Codec
File size : 22.7 MiB
Duration : 4mn 40s
Overall bit rate : 679 Kbps
Album : Viaggio Italiano
Track name : Track02
Track name/Position : 02
Performer : Andrea Bocelli
Genre : Classical
Comment : Track 2

Audio
Format : FLAC
Format/Info : Free Lossless Audio Codec
Duration : 4mn 40s
Bit rate mode : Variable
Bit rate : 679 Kbps
Channel(s) : 2 channels
Sampling rate : 44.1 KHz
Resolution : 16 bits
Stream size : 22.7 MiB (100%)

General
Complete name : C:\Users\Violet\Desktop\Viaggio Italiano Andrea Bocelli (1998) [H33T][Naughty Knights]\Track03.flac
Format : FLAC
Format/Info : Free Lossless Audio Codec
File size : 16.7 MiB
Duration : 3mn 20s
Overall bit rate : 697 Kbps
Album : Viaggio Italiano
Track name : Track03
Track name/Position : 03
Performer : Andrea Bocelli
Genre : Classical
Comment : Track 3

Audio
Format : FLAC
Format/Info : Free Lossless Audio Codec
Duration : 3mn 20s
Bit rate mode : Variable
Bit rate : 697 Kbps
Channel(s) : 2 channels
Sampling rate : 44.1 KHz
Resolution : 16 bits
Stream size : 16.7 MiB (100%)

General
Complete name : C:\Users\Violet\Desktop\Viaggio Italiano Andrea Bocelli (1998) [H33T][Naughty Knights]\Track04.flac
Format : FLAC
Format/Info : Free Lossless Audio Codec
File size : 11.5 MiB
Duration : 2mn 18s
Overall bit rate : 697 Kbps
Album : Viaggio Italiano
Track name : Track04
Track name/Position : 04
Performer : Andrea Bocelli
Genre : Classical
Comment : Track 4

Audio
Format : FLAC
Format/Info : Free Lossless Audio Codec
Duration : 2mn 18s
Bit rate mode : Variable
Bit rate : 696 Kbps
Channel(s) : 2 channels
Sampling rate : 44.1 KHz
Resolution : 16 bits
Stream size : 11.5 MiB (100%)

General
Complete name : C:\Users\Violet\Desktop\Viaggio Italiano Andrea Bocelli (1998) [H33T][Naughty Knights]\Track05.flac
Format : FLAC
Format/Info : Free Lossless Audio Codec
File size : 19.0 MiB
Duration : 4mn 14s
Overall bit rate : 628 Kbps
Album : Viaggio Italiano
Track name : Track05
Track name/Position : 05
Performer : Andrea Bocelli
Genre : Classical
Comment : Track 5

Audio
Format : FLAC
Format/Info : Free Lossless Audio Codec
Duration : 4mn 14s
Bit rate mode : Variable
Bit rate : 627 Kbps
Channel(s) : 2 channels
Sampling rate : 44.1 KHz
Resolution : 16 bits
Stream size : 19.0 MiB (100%)

General
Complete name : C:\Users\Violet\Desktop\Viaggio Italiano Andrea Bocelli (1998) [H33T][Naughty Knights]\Track06.flac
Format : FLAC
Format/Info : Free Lossless Audio Codec
File size : 19.9 MiB
Duration : 3mn 57s
Overall bit rate : 700 Kbps
Album : Viaggio Italiano
Track name : Track06
Track name/Position : 06
Performer : Andrea Bocelli
Genre : Classical
Comment : Track 6

Audio
Format : FLAC
Format/Info : Free Lossless Audio Codec
Duration : 3mn 57s
Bit rate mode : Variable
Bit rate : 700 Kbps
Channel(s) : 2 channels
Sampling rate : 44.1 KHz
Resolution : 16 bits
Stream size : 19.8 MiB (100%)

General
Complete name : C:\Users\Violet\Desktop\Viaggio Italiano Andrea Bocelli (1998) [H33T][Naughty Knights]\Track07.flac
Format : FLAC
Format/Info : Free Lossless Audio Codec
File size : 21.3 MiB
Duration : 4mn 26s
Overall bit rate : 671 Kbps
Album : Viaggio Italiano
Track name : Track07
Track name/Position : 07
Performer : Andrea Bocelli
Genre : Classical
Comment : Track 7

Audio
Format : FLAC
Format/Info : Free Lossless Audio Codec
Duration : 4mn 26s
Bit rate mode : Variable
Bit rate : 671 Kbps
Channel(s) : 2 channels
Sampling rate : 44.1 KHz
Resolution : 16 bits
Stream size : 21.3 MiB (100%)

General
Complete name : C:\Users\Violet\Desktop\Viaggio Italiano Andrea Bocelli (1998) [H33T][Naughty Knights]\Track08.flac
Format : FLAC
Format/Info : Free Lossless Audio Codec
File size : 26.9 MiB
Duration : 4mn 39s
Overall bit rate : 805 Kbps
Album : Viaggio Italiano
Track name : Track08
Track name/Position : 08
Performer : Andrea Bocelli
Genre : Classical
Comment : Track 8

Audio
Format : FLAC
Format/Info : Free Lossless Audio Codec
Duration : 4mn 39s
Bit rate mode : Variable
Bit rate : 805 Kbps
Channel(s) : 2 channels
Sampling rate : 44.1 KHz
Resolution : 16 bits
Stream size : 26.9 MiB (100%)

General
Complete name : C:\Users\Violet\Desktop\Viaggio Italiano Andrea Bocelli (1998) [H33T][Naughty Knights]\Track09.flac
Format : FLAC
Format/Info : Free Lossless Audio Codec
File size : 25.4 MiB
Duration : 4mn 45s
Overall bit rate : 744 Kbps
Album : Viaggio Italiano
Track name : Track09
Track name/Position : 09
Performer : Andrea Bocelli
Genre : Classical
Comment : Track 9

Audio
Format : FLAC
Format/Info : Free Lossless Audio Codec
Duration : 4mn 45s
Bit rate mode : Variable
Bit rate : 744 Kbps
Channel(s) : 2 channels
Sampling rate : 44.1 KHz
Resolution : 16 bits
Stream size : 25.3 MiB (100%)

General
Complete name : C:\Users\Violet\Desktop\Viaggio Italiano Andrea Bocelli (1998) [H33T][Naughty Knights]\Track10.flac
Format : FLAC
Format/Info : Free Lossless Audio Codec
File size : 25.1 MiB
Duration : 5mn 9s
Overall bit rate : 679 Kbps
Album : Viaggio Italiano
Track name : Track10
Track name/Position : 10
Performer : Andrea Bocelli
Genre : Classical
Comment : Track 10

Audio
Format : FLAC
Format/Info : Free Lossless Audio Codec
Duration : 5mn 9s
Bit rate mode : Variable
Bit rate : 679 Kbps
Channel(s) : 2 channels
Sampling rate : 44.1 KHz
Resolution : 16 bits
Stream size : 25.1 MiB (100%)

General
Complete name : C:\Users\Violet\Desktop\Viaggio Italiano Andrea Bocelli (1998) [H33T][Naughty Knights]\Track11.flac
Format : FLAC
Format/Info : Free Lossless Audio Codec
File size : 30.9 MiB
Duration : 5mn 41s
Overall bit rate : 757 Kbps
Album : Viaggio Italiano
Track name : Track11
Track name/Position : 11
Performer : Andrea Bocelli
Genre : Classical
Comment : Track 11

Audio
Format : FLAC
Format/Info : Free Lossless Audio Codec
Duration : 5mn 41s
Bit rate mode : Variable
Bit rate : 757 Kbps
Channel(s) : 2 channels
Sampling rate : 44.1 KHz
Resolution : 16 bits
Stream size : 30.9 MiB (100%)

General
Complete name : C:\Users\Violet\Desktop\Viaggio Italiano Andrea Bocelli (1998) [H33T][Naughty Knights]\Track12.flac
Format : FLAC
Format/Info : Free Lossless Audio Codec
File size : 20.0 MiB
Duration : 3mn 36s
Overall bit rate : 773 Kbps
Album : Viaggio Italiano
Track name : Track12
Track name/Position : 12
Performer : Andrea Bocelli
Genre : Classical
Comment : Track 12

Audio
Format : FLAC
Format/Info : Free Lossless Audio Codec
Duration : 3mn 36s
Bit rate mode : Variable
Bit rate : 772 Kbps
Channel(s) : 2 channels
Sampling rate : 44.1 KHz
Resolution : 16 bits
Stream size : 20.0 MiB (100%)

General
Complete name : C:\Users\Violet\Desktop\Viaggio Italiano Andrea Bocelli (1998) [H33T][Naughty Knights]\Track13.flac
Format : FLAC
Format/Info : Free Lossless Audio Codec
File size : 20.7 MiB
Duration : 3mn 59s
Overall bit rate : 725 Kbps
Album : Viaggio Italiano
Track name : Track13
Track name/Position : 13
Performer : Andrea Bocelli
Genre : Classical
Comment : Track 13

Audio
Format : FLAC
Format/Info : Free Lossless Audio Codec
Duration : 3mn 59s
Bit rate mode : Variable
Bit rate : 724 Kbps
Channel(s) : 2 channels
Sampling rate : 44.1 KHz
Resolution : 16 bits
Stream size : 20.7 MiB (100%)

General
Complete name : C:\Users\Violet\Desktop\Viaggio Italiano Andrea Bocelli (1998) [H33T][Naughty Knights]\Track14.flac
Format : FLAC
Format/Info : Free Lossless Audio Codec
File size : 21.4 MiB
Duration : 4mn 17s
Overall bit rate : 695 Kbps
Album : Viaggio Italiano
Track name : Track14
Track name/Position : 14
Performer : Andrea Bocelli
Genre : Classical
Comment : Track 14

Audio
Format : FLAC
Format/Info : Free Lossless Audio Codec
Duration : 4mn 17s
Bit rate mode : Variable
Bit rate : 694 Kbps
Channel(s) : 2 channels
Sampling rate : 44.1 KHz
Resolution : 16 bits
Stream size : 21.3 MiB (100%)

General
Complete name : C:\Users\Violet\Desktop\Viaggio Italiano Andrea Bocelli (1998) [H33T][Naughty Knights]\Track15.flac
Format : FLAC
Format/Info : Free Lossless Audio Codec
File size : 1 008 KiB
Duration : 16s 973ms
Overall bit rate : 487 Kbps
Album : Viaggio Italiano
Track name : Track15
Track name/Position : 15
Performer : Andrea Bocelli
Genre : Classical
Comment : Track 15

Audio
Format : FLAC
Format/Info : Free Lossless Audio Codec
Duration : 16s 973ms
Bit rate mode : Variable
Bit rate : 483 Kbps
Channel(s) : 2 channels
Sampling rate : 44.1 KHz
Resolution : 16 bits
Stream size : 1 000 KiB (99%)

General
Complete name : C:\Users\Violet\Desktop\Viaggio Italiano Andrea Bocelli (1998) [H33T][Naughty Knights]\Track16.flac
Format : FLAC
Format/Info : Free Lossless Audio Codec
File size : 19.7 MiB
Duration : 3mn 24s
Overall bit rate : 809 Kbps
Album : Viaggio Italiano
Track name : Track16
Track name/Position : 16
Performer : Andrea Bocelli
Genre : Classical
Comment : Track 16

Audio
Format : FLAC
Format/Info : Free Lossless Audio Codec
Duration : 3mn 24s
Bit rate mode : Variable
Bit rate : 808 Kbps
Channel(s) : 2 channels
Sampling rate : 44.1 KHz
Resolution : 16 bits
Stream size : 19.7 MiB (100%)

--------------------------------------------------------------
enjoy & seed

related torrents

Torrent name

health leech seeds Size
 

comments (0)

Main Menu