Comedy

Legally Blonde (2001) DVDRip AC3 ENG

  • Download 5x Faster
  • Download torrent
  • Direct Download
  • Rate this torrent +  |  -
Legally Blonde (2001) DVDRip AC3 ENG

Anonymous and Free Direct Download


Torrent info

Name:Legally Blonde (2001) DVDRip AC3 ENG

Total Size: 800.46 MB

Magnet: Magnet Link

Seeds: 3

Leechers: 0

Stream: Watch Online @ Movie4u

Last Updated: 2016-12-02 19:06:14 (Update Now)

Torrent added: 2008-12-02 00:33:49



VPN For Torrents

Torrent Files List


Legally Blonde (2001) - DVDRip - AC3 - ENG.avi (Size: 800.46 MB) (Files: 3)

 Legally Blonde (2001) - DVDRip - AC3 - ENG.avi

800.45 MB

 Legally Blonde (2001) - DVDRip - AC3 - ENG.nfo

9.89 KB

 Tracked_by_Demonoid_com.txt

0.03 KB
 

tracker

leech seeds
 

Torrent description

IMDb: http://www.imdb.com/title/tt0250494
User Rating: 6.2/10 35,991 votes
Release Date: 26 October 2001 (UK)
Genre: Comedy
Tagline: This summer go blonde!

Plot: When a blonde sorority queen is dumped by her boyfriend, she decides to follow him to law school to get him
back and, once there, learns she has more legal savvy than she ever imagined.

Cast:
Reese Witherspoon ... Elle Woods
Luke Wilson ... Emmett
Selma Blair ... Vivian
Matthew Davis ... Warner
Victor Garber ... Professor Callahan
Jennifer Coolidge ... Paulette
Holland Taylor ... Professor Stromwell
Ali Larter ... Brooke Taylor Windham




Screenshots:

Legally Blonde (2001)   DVDRip   AC3   ENG preview 0
Legally Blonde (2001)   DVDRip   AC3   ENG preview 1
Legally Blonde (2001)   DVDRip   AC3   ENG preview 2
Legally Blonde (2001)   DVDRip   AC3   ENG preview 3





General
Complete name : Legally Blonde (2001) - DVDRip - AC3 - ENG.avi
Format : AVI
Source : PAL DVD
File size : 800 MiB
Duration : 1h 32mn
Overal bit rate : 1216 Kbps
Language : English

Video
Format : XVID
Duration : 1h 32mn
Bit rate : 761 Kbps
Width : 624 pixels
Height : 272 pixels
Display aspect ratio : 2.25
Frame rate : 25.000 fps
Resolution : 8 bits
Colorimetry : 4:2:0
Scan type : Progressive
Bits/(Pixel*Frame) : 0.179
Stream size : 501 MiB (63%)

Audio
Format : AC-3
Format/Info : Audio Coding 3
Codec ID : 2000
Duration : 1h 32mn
Bit rate mode : Constant
Bit rate : 448 Kbps
Channel(s) : 6 channels
Channel positions : Front: L C R, Rear: L R, LFE
Sampling rate : 48.0 KHz
Stream size : 295 MiB (37%)



Info Hash: B473E1183822C01457A35AFBBB384FEA55C91CA2


Trackers:

http://inferno.demonoid.com:3400/announce
http://tpb.tracker.thepiratebay.org:80/announce
http://denis.stalker.h3q.com:6969/announce
http://www.torrent-downloads.to:5869/announce
http://vip.tracker.thepiratebay.org/announce




Enjoy.

related torrents

Torrent name

health leech seeds Size
 


comments (0)

Main Menu