Soundtracks

My Heart Will Go On Perfect Quality x264 mp4

  • Download 5x Faster
  • Download torrent
  • Direct Download
  • Rate this torrent +  |  -
My Heart Will Go On Perfect Quality x264 mp4

Free and Direct Download with Usenet.nl 300GB+ free


Torrent info

Name:My Heart Will Go On Perfect Quality x264 mp4

Total Size: 174.89 MB

Magnet: Magnet Link

Seeds: 0

Leechers: 0

Stream: Watch Online @ Movie4u

Last Updated: 2012-08-06 07:12:39 (Update Now)

Torrent added: 2008-12-01 20:34:10





Torrent Files List


My Heart Will Go On Perfect Quality x264.mp4 (Size: 174.89 MB) (Files: 1)

 My Heart Will Go On Perfect Quality x264.mp4

174.89 MB
 

Announce URL:

Torrent description

To play with VLC player software. Please buy the DVD, great movie :)

General
Complete name : My Heart Will Go On Perfect Quality x264.mp4
Format : MPEG-4
Format profile : Base Media
Codec ID : isom
File size : 175 MiB
Duration : 4mn 32s
Overall bit rate : 5 391 Kbps

Video
Format : AVC
Format/Info : Advanced Video Codec
Format profile : [email protected]
Format settings, CABAC : Yes
Format settings, ReFrames : 1 frame
Codec ID : avc1
Codec ID/Info : Advanced Video Coding
Duration : 4mn 32s
Bit rate mode : Variable
Bit rate : 5 273 Kbps
Maximum bit rate : 6 536 Kbps
Width : 720 pixels
Height : 528 pixels
Display aspect ratio : 4/3
Frame rate mode : Constant
Frame rate : 25.000 fps
Resolution : 24 bits
Colorimetry : 4:2:0
Scan type : Progressive
Bits/(Pixel*Frame) : 0.555
Stream size : 171 MiB (98%)
Writing library : x264 core 65 r1029M cb3c213
Encoding settings : cabac=1 / ref=1 / deblock=1:0:0 / analyse=0x1:0x111 / me=hex / subme=6 / psy_rd=1.0:0.0 / mixed_ref=0 / me_range=16 / chroma_me=1 / trellis=0 / 8x8dct=0 / cqm=0 / deadzone=21,11 / chroma_qp_offset=-2 / threads=3 / nr=0 / decimate=1 / mbaff=0 / bframes=0 / keyint=250 / keyint_min=25 / scenecut=40(pre) / rc=2pass / bitrate=5273 / ratetol=1.0 / qcomp=0.60 / qpmin=10 / qpmax=51 / qpstep=4 / cplxblur=20.0 / qblur=0.5 / ip_ratio=1.40 / aq=1:1.00

Audio
Format : AAC
Format/Info : Advanced Audio Codec
Format version : Version 4
Format profile : LC
Format settings, SBR : No
Codec ID : 40
Duration : 4mn 32s
Bit rate mode : Variable
Bit rate : 118 Kbps
Maximum bit rate : 143 Kbps
Channel(s) : 2 channels
Channel positions : L R
Sampling rate : 48.0 KHz
Resolution : 16 bits
Stream size : 3.84 MiB (2%)

related torrents

Torrent name

health leech seeds Size
 

comments (0)

Main Menu