Thriller

The Silence of the Lambs (1991) Opt MULTISUBS

  • Download 5x Faster
  • Download torrent
  • Direct Download
  • Rate this torrent +  |  -
The Silence of the Lambs (1991) Opt MULTISUBS

Anonymous and Direct Download 300GB+ free


Torrent info

Name:The Silence of the Lambs (1991) Opt MULTISUBS

Total Size: 715.58 MB

Magnet: Magnet Link

Seeds: 0

Leechers: 0

Stream: Watch Online @ Movie4u

Last Updated: 2014-09-30 16:23:42 (Update Now)

Torrent added: 2008-12-01 12:41:13




Torrent Files List


AA-Sample (Size: 715.58 MB) (Files: 19)

 AA-Sample

  AA-Sample-The Silence of the Lambs (1991)_Kuth.avi

10.43 MB

 Info about this release.txt

4.73 KB

 Optional subtitles

  Czech.rar

898.40 KB

  Dansk.rar

863.87 KB

  Dutch.rar

22.90 KB

  English for the hearing impaired.rar

878.40 KB

  English.rar

843.18 KB

  Greek.rar

930.20 KB

  Hebrew.rar

709.35 KB

  Hrvatski.rar

833.49 KB

  Hungarian.rar

774.66 KB

  Norsk.rar

785.66 KB

  Notes on subtitle files and burning of discs.txt

2.48 KB

  Polski.rar

900.20 KB

  Portugues.rar

853.25 KB

  Suomenkillinen.rar

850.38 KB

  Svenska.rar

768.97 KB

  Turkish.rar

816.57 KB

 The Silence of the Lambs (1991) Jodie Foster (Opt.MULTISUBS)_Kuth.avi

693.70 MB
 

Announce URL:

Torrent description

The Silence of the Lambs (1991)

Optional subtitles in separate idx/sub and srt files:
Croatian (Hrvatski), Czech, Danish, Dutch (srt format), English, English for the hearing impaired, Finnish, Greek, Hebrew, Hungarian, Norwegian, Polish, Portuguese, Swedish, Turkish.

This classic should be available with subtitles, so I made a rip for you.
My new ripping procedure now produces decent quality for such a long film compressed into just 700 MiB. I enclose a sample for ye weak in faith.

Widescreen DVDrip XviD 2-pass 720x288, really great stereo sound AC3.
Burn tested, runs well in both my standalone DivX players.

Format/Info : Audio Video Interleave
File size : 694 MiB
Duration : 1h 53mn
Overal bit rate : 854 Kbps

Video
Format : MPEG-4 Visual
Format profile : Streaming [email protected]
Format settings, BVOP : Yes
Format settings, QPel : No
Format settings, GMC : No warppoints
Format settings, Matrix : Default
Muxing mode : Packet Bitstream
Codec ID : XVID
Codec ID/Hint : XviD
Duration : 1h 53mn
Bit rate : 716 Kbps
Width : 720 pixels
Height : 368 pixels
Display aspect ratio : 1.957
Frame rate : 25.000 fps
Resolution : 8 bits
Colorimetry : 4:2:0
Scan type : Progressive
Bits/(Pixel*Frame) : 0.108
Stream size : 582 MiB
Writing library : XviD 1.2.0.dev47 (UTC 2006-11-01)

Audio
Format : MPEG Audio
Format version : Version 1
Format profile : Layer 3
Codec ID : 55
Codec ID/Hint : MP3
Duration : 1h 53mn
Bit rate mode : Constant
Bit rate : 128 Kbps
Minimum bit rate : 128 Kbps
Channel(s) : 2 channels
Sampling rate : 48.0 KHz
Resolution : 16 bits
Stream size : 104 MiB
Writing library : LAME3.97
Encoding settings : CBR

Source: PAL retail (note that PAL/NTSC will give no problems for avi files).

Thanks to Kuthumi!

related torrents

Torrent name

health leech seeds Size
 


comments (0)

Main Menu