Classic

A Night In Tuscany Andrea Bocelli (2001) H33TNaughty Knights Cieli Di Toscana

  • Download 5x Faster
  • Download torrent
  • Direct Download
  • Rate this torrent +  |  -

Torrent info

Name:A Night In Tuscany Andrea Bocelli (2001) H33TNaughty Knights Cieli Di Toscana

Total Size: 355.18 MB

Magnet: Magnet Link

Seeds: 0

Leechers: 0

Stream: Watch Online @ Movie4u

Last Updated: 2016-01-31 00:11:40 (Update Now)

Torrent added: 2008-12-01 00:35:27




Torrent Files List


Mediainfo.log.txt (Size: 355.18 MB) (Files: 17)

 Mediainfo.log.txt

15.80 KB

 Toscana Description.txt

3.76 KB

 Track01.flac

24.27 MB

 Track02.flac

26.02 MB

 Track03.flac

28.31 MB

 Track04.flac

22.51 MB

 Track05.flac

23.88 MB

 Track06.flac

21.15 MB

 Track07.flac

30.29 MB

 Track08.flac

26.65 MB

 Track09.flac

21.89 MB

 Track10.flac

27.07 MB

 Track11.flac

29.12 MB

 Track12.flac

25.73 MB

 Track13.flac

27.89 MB

 Track14.flac

20.38 MB

 tracked_by_h33t_com.txt

0.03 KB
 

tracker

leech seeds
 

Torrent description

*************************************
* IF.YOU.ENJOYED.THANK.ME.BY.SEEDING

I.DO.NOT.ALWAYS.READ.COMMENTS

SEND RESEED REQUESTS TO: www.h33tfr33sp33k.h33t.com/

---------------------------------------------

Exact Audio Copy V0.99 prebeta 4 from 23. January 2008

EAC extraction logfile from 30. November 2008, 17:18

Andrea Bocelli / Cieli Di Toscana (1997)

Used drive : TSSTcorpCDDVDW TS-H653N Adapter: 2 ID: 1

Read mode : Secure
Utilize accurate stream : Yes
Defeat audio cache : No
Make use of C2 pointers : No

Combined read/write offset correction : 0
Overread into Lead-In and Lead-Out : No
Fill up missing offset samples with silence : Yes
Delete leading and trailing silent blocks : No
Null samples used in CRC calculations : No
Used interface : Native Win32 interface for Win NT & 2000
Gap handling : Not detected, thus appended to previous track

Used output format : User Defined Encoder
Selected bitrate : 768 kBit/s
Quality : High
Add ID3 tag : No
Command line compressor : C:\Program Files\Exact Audio Copy\FLAC\FLAC.EXE


TOC of the extracted CD

Track | Start | Length | Start sector | End sector
---------------------------------------------------------
1 | 0:00.00 | 4:09.50 | 0 | 18724
2 | 4:09.50 | 4:00.70 | 18725 | 36794
3 | 8:10.45 | 5:06.07 | 36795 | 59751
4 | 13:16.52 | 4:03.50 | 59752 | 78026
5 | 17:20.27 | 4:12.65 | 78027 | 96991
6 | 21:33.17 | 4:10.03 | 96992 | 115744
7 | 25:43.20 | 4:30.07 | 115745 | 136001
8 | 30:13.27 | 5:00.13 | 136002 | 158514
9 | 35:13.40 | 4:07.07 | 158515 | 177046
10 | 39:20.47 | 4:21.70 | 177047 | 196691
11 | 43:42.42 | 4:52.68 | 196692 | 218659
12 | 48:35.35 | 5:02.47 | 218660 | 241356
13 | 53:38.07 | 4:03.70 | 241357 | 259651
14 | 57:42.02 | 3:46.53 | 259652 | 276654

TRACK NAMES:-----------------------------------------------------------------------

Pierpaolo Guerrini / Paolo Luciani Un dulce melodramma (Melodramma)

Francesco Sartori / David Foster / Lucio Quarantotto / Claudio Corradini Mille lune mille onde (A Thousand Moons, a Thousand

Waves)

Robin Smith / Alberto Salerno E sara' a settembre (Someone Like You)

Francesco Sartori / David Foster / Alessio Bonomo Chiara

Paolo Marioni / Luigino Biagioni / Carlo Botteghi Mascagni

Matteo Musumeci / Andrea Bocelli Resta qui (Stay Here)

Laurex / Raffaello di Pietro Il mistero dell'amore (The Mystery of Love)

Tony Renis / Massimo Guantini / Alberto Testa Se la gente usasse il cuore (If People Used Their Hearts)

Fausto Mesolella / Alessio Bonomo Si volt? (She Turned Around)

Pierpaolo Guerrini / Giorgio Calabrese L'abitudine (The Habit)

Francesco Sartori / Andrea Bocelli / Alessio Bonomo L'incontro (The Meeting)

Zdenek Bartak E mi manchi tu (And I Miss You)

Andrea Bocelli Il diavolo e l'angelo (The Devil and the Angel)

Alessandro Napoletano / Marco di Marco L'ultimo re (The Last King)

See Mediainfo.txt for more details.
-------------------------------------------------------------------------------------
Tracker 1......: http://www.h33t.com:3310/announce

Tracker 2 .....: http://tpb.tracker.thepiratebay.org:80/announce

HASH ..........: 9CA4A5B0CD9E17854B6361C0FAC3B7F832513147

related torrents

Torrent name

health leech seeds Size
 

comments (0)

Main Menu