Comedy

For the Boys (1991) Opt MULTISUBS

  • Download 5x Faster
  • Download torrent
  • Direct Download
  • Rate this torrent +  |  -
For the Boys (1991) Opt MULTISUBS

Free and Direct Download with Usenet.nl 300GB+ free


Torrent info

Name:For the Boys (1991) Opt MULTISUBS

Total Size: 732.44 MB

Magnet: Magnet Link

Seeds: 2

Leechers: 17

Stream: Watch Online @ Movie4u

Last Updated: 2011-01-03 16:31:35 (Update Now)

Torrent added: 2008-11-30 20:33:32





Torrent Files List


AA-Sample (Size: 732.44 MB) (Files: 12)

 AA-Sample

  AA-Sample-For the Boys (1991) Bette Midler_Kuth.avi

30.91 MB

 For the Boys (1991) Bette Midler (Optional MULTISUBS)_Kuth.avi

695.66 MB

 Info about this release.txt

4.69 KB

 Optional subtitles

  Deutsch.rar

790.97 KB

  English for the hearing impaired.rar

850.20 KB

  Espanol.rar

746.77 KB

  Francais.rar

727.59 KB

  Italiano.rar

793.17 KB

  Nederlands.rar

627.79 KB

  Notes on subtitle files and burning of discs.txt

2.20 KB

  Portugues.rar

799.83 KB

  Svenska.rar

658.48 KB
 

Announce URL: http://tracker.thepiratebay.org/announce

Torrent description

For the Boys (1991)

Optional subtitles in separate idx/sub files:
Dutch, English for the hearing impaired, French, German, Italian, Portuguese, Swedish, Turkish.
(Sorry for the rest of you guys, there were no more languages on the DVD.)

Bette Midler is taylor-made for this part as singer Dixie Leonard, who travels and performs to entertain U.S. soldiers through 50 years with World War II, the Korean War, and the Vietnam War.

My new ripping procedure now produces decent quality for such a long film compressed into just 700 MiB. I enclose a sample for ye weak in faith.

Widescreen DVDrip XviD 2-pass 704x384, really great stereo sound AC3.
Burn tested, runs well in both my standalone DivX players.


Format/Info : Audio Video Interleave

File size : 696 MiB
Duration : 2h 18mn
Overal bit rate : 700 Kbps

Video
Format : MPEG-4 Visual
Format profile : Streaming [email protected]
Format settings, BVOP : Yes
Format settings, QPel : No
Format settings, GMC : No warppoints
Format settings, Matrix : Default
Muxing mode : Packet Bitstream
Codec ID : XVID
Codec ID/Hint : XviD
Duration : 2h 18mn
Bit rate : 562 Kbps
Width : 704 pixels
Height : 384 pixels
Display aspect ratio : 16/9
Frame rate : 25.000 fps
Resolution : 8 bits
Colorimetry : 4:2:0
Scan type : Progressive
Bits/(Pixel*Frame) : 0.083
Stream size : 559 MiB
Writing library : XviD 1.2.0.dev47 (UTC 2006-11-01)

Audio
Format : MPEG Audio
Format version : Version 1
Format profile : Layer 3
Codec ID : 55
Codec ID/Hint : MP3
Duration : 2h 18mn
Bit rate mode : Constant
Bit rate : 128 Kbps
Minimum bit rate : 128 Kbps
Channel(s) : 2 channels
Sampling rate : 48.0 KHz
Resolution : 16 bits
Stream size : 127 MiB
Writing library : LAME3.97
Encoding settings : CBR

Source: PAL retail 5.77 GiB (note that PAL/NTSC will give no problems for avi files).

Thanks to Kuthumi!

related torrents

Torrent name

health leech seeds Size
 

comments (0)

Main Menu