Babylon 5

Babylon 5 Crusade GERMAN XViD

  • Download 5x Faster
  • Download torrent
  • Direct Download
  • Rate this torrent +  |  -
Babylon 5 Crusade GERMAN XViD

Anonymous and Free Direct Download 300GB+


Torrent info

Name:Babylon 5 Crusade GERMAN XViD

Total Size: 2.09 GB

Magnet: Magnet Link

Seeds: 0

Leechers: 0

Stream: Watch Online @ Movie4u

Last Updated: 2016-10-24 19:11:30 (Update Now)

Torrent added: 2008-11-29 16:56:20



VPN For Torrents

Torrent Files List


Babylon 5 Crusade 01 und 02 - Kriegsgebiet und der lange weg.avi (Size: 2.09 GB) (Files: 6)

 Babylon 5 Crusade 01 und 02 - Kriegsgebiet und der lange weg.avi

619.86 MB

 Babylon 5 Crusade S1E03 - Der Quelle der Ewigkeit.avi

280.00 MB

 Babylon 5 Crusade S1E04 - Der Pfad der Sorgen.avi

309.88 MB

 Babylon 5 Crusade S1E05 - Dureenas Geheimnis.avi

310.33 MB

 Babylon 5 Crusade S1E06 - Befehle aus dem Grab.avi

310.14 MB

 Babylon 5 Crusade S1E07 - Nach eigenen Regeln.avi

309.66 MB
 

tracker

leech seeds
 

Torrent description

!!GERMAN TRACKER!!


Die Drakh haben auf der Erde einen Virus ausgesetzt, der nach 5 Jahren die ganze Bevölkerung
auslöschen wird. Captain Matthew Gideon (Gary Cole) bekommt den Auftrag mit dem neu entwickelten
Raumschiff "Excalibur" nach einem Heilstoff gegen das Virus zu suchen.

Allgemein
Vollständiger Name : Babylon 5 Crusade.avi
Format : AVI
Format/Info : Audio Video Interleave
Dateigrö?e : 620 MiB
Duration : 1h 24min
Gesamte Bitrate : 1021 Kbps
Verwendetes Programm : VirtualDubMod 1.5.10.2 (build 2540/release)
verwendete Encoder-Bibliothek : VirtualDubMod build 2540/release

Video
Format : MPEG-4 Visual
Format profile : [email protected]
Format settings, BVOP : Ja
Format settings, QPel : Nein
Format settings, GMC : No warppoints
Format settings, Matrix : Default
Muxing mode : Packet Bitstream
Codec ID : XVID
Codec ID/Hint : XviD
Duration : 1h 24min
Bitrate : 877 Kbps
Breite : 640 Pixel
Höhe : 352 Pixel
Bildseitenverhältnis : 16/9
Bildwiederholungsrate : 25.000 FPS
Auflösung : 8 bits
Colorimetry : 4:2:0
Scan type : Progressive
Bits/(Pixel*Frame) : 0.156
Stream size : 532 MiB (86%)
verwendete Encoder-Bibliothek : XviD 1.1.0 Beta2 (UTC 2005-04-04)

Audio
Format : MPEG Audio
Format version : Version 1
Format profile : Layer 3
Codec ID : 55
Codec ID/Hint : MP3
Duration : 1h 24min
Bitraten-Modus : Variable
Bitrate : 131 Kbps
Nominal bit rate : 128 Kbps
Kanäle : 2 Kanäle
Samplingrate : 48.0 KHz
Auflösung : 16 bits
Stream size : 79.6 MiB (13%)
Alignment : Aligned on interleaves
Interleave, duration : 24 ms (0.60 video frame)
Interleave, preload duration : 140 ms
verwendete Encoder-Bibliothek : LAME3.90.
Kodierungseinstellungen : ABR

related torrents

Torrent name

health leech seeds Size
 


comments (0)

Main Menu