TV - Other

Ally McBeal S01E01 Pilot Eng Audio Eng Sub mp4

  • Download 5x Faster
  • Download torrent
  • Direct Download
  • Rate this torrent +  |  -
Ally McBeal S01E01 Pilot Eng Audio Eng Sub mp4

Free and Direct Download with Usenet.nl 300GB+ free


Torrent info

Name:Ally McBeal S01E01 Pilot Eng Audio Eng Sub mp4

Total Size: 351.05 MB

Magnet: Magnet Link

Seeds: 1

Leechers: 1

Stream: Watch Online @ Movie4u

Last Updated: 2010-12-24 23:13:35 (Update Now)

Torrent added: 2008-11-29 16:54:36





Torrent Files List


Ally McBeal S01E01 Pilot Eng Audio Eng Sub.mp4 (Size: 351.05 MB) (Files: 1)

 Ally McBeal S01E01 Pilot Eng Audio Eng Sub.mp4

351.05 MB
 

Announce URL: http://open.tracker.thepiratebay.org/announce

Torrent description

Audio English
Subtitles English

If you love this video, please go to buy the DVDs, cheap for 5 seasons in one box.

To get a snapshot of the video quality go to
Ally McBeal S01E01 Pilot Eng Audio Eng Sub mp4 preview 0

Video format x264 to play with classic media player http://sourceforge.net/projects/guliverkli/ or VLC player https://videolan.org/vlc/

Video technical details

General
Complete name : C:\Ally McBeal S01E01 Pilot Eng Audio Eng Sub.mp4
Format : MPEG-4
Format profile : Base Media
Codec ID : isom
File size : 351 MiB
Duration : 40mn 55s
Overall bit rate : 1 199 Kbps
Encoded date : UTC 2008-11-28 19:58:08
Tagged date : UTC 2008-11-28 19:58:08

Video
Format : AVC
Format/Info : Advanced Video Codec
Format profile : [email protected]
Format settings, CABAC : Yes
Format settings, ReFrames : 1 frame
Codec ID : avc1
Codec ID/Info : Advanced Video Coding
Duration : 40mn 55s
Bit rate mode : Variable
Bit rate : 1 058 Kbps
Maximum bit rate : 3 071 Kbps
Width : 720 pixels
Height : 528 pixels
Display aspect ratio : 4/3
Frame rate mode : Constant
Frame rate : 25.000 fps
Resolution : 24 bits
Colorimetry : 4:2:0
Scan type : Progressive
Bits/(Pixel*Frame) : 0.111
Stream size : 310 MiB (88%)
Writing library : x264 core 65 r1029M cb3c213
Encoding settings : cabac=1 / ref=1 / deblock=1:0:0 / analyse=0x1:0x111 / me=hex / subme=6 / psy_rd=1.0:0.0 / mixed_ref=0 / me_range=16 / chroma_me=1 / trellis=0 / 8x8dct=0 / cqm=0 / deadzone=21,11 / chroma_qp_offset=-2 / threads=3 / nr=0 / decimate=1 / mbaff=0 / bframes=0 / keyint=250 / keyint_min=25 / scenecut=40(pre) / rc=2pass / bitrate=1058 / ratetol=1.0 / qcomp=0.60 / qpmin=10 / qpmax=51 / qpstep=4 / cplxblur=20.0 / qblur=0.5 / ip_ratio=1.40 / aq=1:1.00
Encoded date : UTC 2008-11-28 19:58:08
Tagged date : UTC 2008-11-28 19:58:57

Audio
Format : AAC
Format/Info : Advanced Audio Codec
Format version : Version 4
Format profile : LC
Format settings, SBR : No
Codec ID : 40
Duration : 40mn 55s
Bit rate mode : Variable
Bit rate : 132.3 Kbps
Maximum bit rate : 173 Kbps
Channel(s) : 2 channels
Channel positions : L R
Sampling rate : 48.0 KHz
Resolution : 16 bits
Stream size : 39.5 MiB (11%)
Encoded date : UTC 2008-11-28 19:58:47
Tagged date : UTC 2008-11-28 19:58:57

Text
Format : VobSub
Codec ID : subp
Codec ID/Info : The same subtitle format used on DVDs
Duration : 40mn 53s
Bit rate mode : Variable
Bit rate : 3 926 bps
Stream size : 1.15 MiB (0%)
Title : English
Language : English
Encoded date : UTC 2008-11-28 19:58:57
Tagged date : UTC 2008-11-28 19:58:57

related torrents

Torrent name

health leech seeds Size

Ally Mcbeal S01e01

0 0 934.00 MB 0
 

comments (0)

Main Menu