Sci-Fi

XFiles I Want to Believe(2008)EXT CUTMiNdSkiN1337x

  • Download 5x Faster
  • Download torrent
  • Direct Download
  • Rate this torrent +  |  -
XFiles I Want to Believe(2008)EXT CUTMiNdSkiN1337x

Anonymous and Direct Download 300GB+ free


Torrent info

Name:XFiles I Want to Believe(2008)EXT CUTMiNdSkiN1337x

Total Size: 889.17 MB

Magnet: Magnet Link

Seeds: 2

Leechers: 30

Stream: Watch Online @ Movie4u

Last Updated: 2010-09-25 03:45:41 (Update Now)

Torrent added: 2008-11-29 08:38:00




Torrent Files List


cover.jpg (Size: 889.17 MB) (Files: 5)

 cover.jpg

35.97 KB

 XFiles.I.Want.to.Believe(2008)[EXT.CUT][MiNdSkiN]1337x.avi

800.02 MB

 XFiles.I.Want.to.Believe(2008)[EXT.CUT][MiNdSkiN]1337x.nfo

10.36 KB

 [EXTRA.FEATURE]Chris.Carter.statements.on.green.production.avi

49.97 MB

 [EXTRA.FEATURE]Dying.2.Live.by.Xzibit.avi

39.13 MB
 

Announce URL: http://genesis.1337x.org:1337/announce

Torrent description




...


VIEW COVER

VIEW SCREENS



INCLUDES SPECIAL FEATURES:

1: Chris Carter: Statements on Green Production
2: ?Music Video - Music Slideshow: "Dying 2 Live" by Xzibit





...




ÑÑÑÑÑÑÑÑÑÑÑÑÑÑÑÑÑÑÑÑÑÑÑÑÑÑÑÑÑÑÑÑÑÑÑÑÑÑÑÑÑÑÑÑÑÑÑÑÑÑÑÑÑÑÑÑÑÑÑÑÑÑÑÑÑÑÑÑÑÑÑÑÑÑÑÑÑÑ
ÆÑÆ ÆÑÆ
ÆÑÆ A 1337X Release By: MiNdSkiN ÆÑÆ
ÆÑÆ ÆÑÆ
ÑÑÑÑÑÑÑÑÑÑÑÑÑÑÑÑÑÑÑÑÑÑÑÑÑÑÑÑÑÑÑÑÑÑÑÑÑÑÑÑÑÑÑÑÑÑÑÑÑÑÑÑÑÑÑÑÑÑÑÑÑÑÑÑÑÑÑÑÑÑÑÑÑÑÑÑÑÑ
ÆÑÆAA. .AAÆÑÆ
ÆÑÆA AÆÑÆ
ÆÑÆ ÆÑÆ
ÆÑ .uuu ÑÆ
Æ z@#"%c .uuzm**"""""*%mu.. z*"` .e@#N Æ
@!!!R. #c .z*" ^*c z dT!!!!!>
'!!!!!!N "i u*" #s :" @?!!!!!!!R
t!!!!!!!#u "i .@ ^$ :R!!!!!!!!!X
'!!!!!!!!!#c "i:# ?> R!!!!!!!!!!X
'!!!!!!!!!!!N @ 4W!!!!!!!!!!!>
'!!!!!!!!!!!!Ru" ?!!!!!!!!!!X
'X!!!!!!!!!!!9~ . . 'X!!!!!!!!!6
R!!!!!!!!!!tF z$#` h &!!UR!!!!!F
?!!!!!!!!$ .@ X !!!!!X
M!!!!!i#U!E . @F ! FdR!!!!!!f
'X!!!!!#c'?u@#"*. :$ F'9!!!!!!!@
9!!!!!!!?NM ^*c dF ' @!!!!!!!X>
R!!!!!!!!& "e d K<!!!!!!!XF
'X!!!!!!!M> ^N f < E!!!!!!X"
t!!!!!!!# ^N :" .e$"^ Fn!!!!!XP
#X!!!!!!ML *c z" .e$$$$$ M'!!!!W*
"[email protected] ^%u. ""**#).zd$$#$$$$$$$ <*@**"
'N 4$$$$$@$$$)$$#$$$$$$$$$ :$
?> "$$$$$$":$$$$$ "$$$$$$$$ %
:" ? ^#*" S "$$$$$ ?
F L d X
& t @$$$ f
* $$$$$$$$$$& @
'*. W'$$$$$$$ h u#
Æ ^*muz* % $$$$$$": `" Æ
ÆÑ # ^**" d ÑÆ
ÆÑÆ "***" ÆÑÆ
ÆÑÆA AÆÑÆ
ÆÑÆAA. .AAÆÑÆ
ÑÑÑÑÑÑÑÑÑÑÑÑÑÑÑÑÑÑÑÑÑÑÑÑÑÑÑÑÑÑÑÑÑÑÑÑÑÑÑÑÑÑÑÑÑÑÑÑÑÑÑÑÑÑÑÑÑÑÑÑÑÑÑÑÑÑÑÑÑÑÑÑÑÑÑÑÑÑ
ÆÑÆ ÆÑÆ
ÆÑÆ A 1337x Release by MiNdSkiN ÆÑÆ
ÆÑÆ ÆÑÆ
ÑÑÑÑÑÑÑÑÑÑÑÑÑÑÑÑÑÑÑÑÑÑÑÑÑÑÑÑÑÑÑÑÑÑÑÑÑÑÑÑÑÑÑÑÑÑÑÑÑÑÑÑÑÑÑÑÑÑÑÑÑÑÑÑÑÑÑÑÑÑÑÑÑÑÑÑÑÑ
±±±±±±±± iMDb Movie Info: ±±±±±±±±
ÑÑÑÑÑÑÑÑÑÑÑÑÑÑÑÑÑÑÑÑÑÑÑÑÑÑÑÑÑÑÑÑÑÑÑÑÑÑÑÑÑÑÑÑÑÑÑÑÑÑÑÑÑÑÑÑÑÑÑÑÑÑÑÑÑÑÑÑÑÑÑÑÑÑÑÑÑÑ
ÆÑÆAA. .AAÆÑÆ
ÆÑÆA AÆÑÆ
ÆÑÆ ÆÑÆ
ÆÑÆ ÆÑÆ
ÆÑÆ |-------- Title | The X Files: I Want to Believe ÆÑÆ
ÆÑÆ ÆÑÆ
ÆÑÆ |--------- Year | 2008 ÆÑÆ
ÆÑÆ ÆÑÆ
ÆÑÆ |---- iMDb Rate | 6.1/10 (21,136 votes) ÆÑÆ
ÆÑÆ ÆÑÆ
ÆÑÆ |----- iMDb URL | http://imdb.com/title/tt0443701 ÆÑÆ
ÆÑÆ ÆÑÆ
ÆÑÆ |-------- Genre | Drama / Mystery / Sci-Fi ÆÑÆ
ÆÑÆ ÆÑÆ
ÆÑÆ |--- Director/s | Chris Carter ÆÑÆ
ÆÑÆ ÆÑÆ
ÆÑÆ |--------- Cast | David Duchovny, Gillian Anderson, Amanda Peet ÆÑÆ
ÆÑÆ ÆÑÆ
ÆÑÆ |--------- Plot | Mulder and Scully are called back to duty by the ÆÑÆ
ÆÑÆ FBI when a former priest claims to be receiving ÆÑÆ
ÆÑÆ psychic visions pertaining to a kidnapped agent. ÆÑÆ
ÆÑÆ ÆÑÆ
ÆÑÆ ÆÑÆ
ÆÑÆA AÆÑÆ
ÆÑÆAA. .AAÆÑÆ
ÑÑÑÑÑÑÑÑÑÑÑÑÑÑÑÑÑÑÑÑÑÑÑÑÑÑÑÑÑÑÑÑÑÑÑÑÑÑÑÑÑÑÑÑÑÑÑÑÑÑÑÑÑÑÑÑÑÑÑÑÑÑÑÑÑÑÑÑÑÑÑÑÑÑÑÑÑÑ
±±±±±±±± Extra Feature Info: ±±±±±±±±
ÑÑÑÑÑÑÑÑÑÑÑÑÑÑÑÑÑÑÑÑÑÑÑÑÑÑÑÑÑÑÑÑÑÑÑÑÑÑÑÑÑÑÑÑÑÑÑÑÑÑÑÑÑÑÑÑÑÑÑÑÑÑÑÑÑÑÑÑÑÑÑÑÑÑÑÑÑÑ
±±± ±±±
±±± [EXTRA.FEATURE]Dying.2.Live.by.Xzibit.avi ±±±
±±± ±±±
ÑÑÑÑÑÑÑÑÑÑÑÑÑÑÑÑÑÑÑÑÑÑÑÑÑÑÑÑÑÑÑÑÑÑÑÑÑÑÑÑÑÑÑÑÑÑÑÑÑÑÑÑÑÑÑÑÑÑÑÑÑÑÑÑÑÑÑÑÑÑÑÑÑÑÑÑÑÑ

Format : AVI
Format/Info : Audio Video Interleave
File size : 39.1 MiB
Duration : 4mn 3s
Overall bit rate : 1 346 Kbps




ÑÑÑÑÑÑÑÑÑÑÑÑÑÑÑÑÑÑÑÑÑÑÑÑÑÑÑÑÑÑÑÑÑÑÑÑÑÑÑÑÑÑÑÑÑÑÑÑÑÑÑÑÑÑÑÑÑÑÑÑÑÑÑÑÑÑÑÑÑÑÑÑÑÑÑÑÑÑ
±±± ±±±
±±± [EXTRA.FEATURE]Chris.Carter.statements.on.green.production.avi ±±±
±±± ±±±
ÑÑÑÑÑÑÑÑÑÑÑÑÑÑÑÑÑÑÑÑÑÑÑÑÑÑÑÑÑÑÑÑÑÑÑÑÑÑÑÑÑÑÑÑÑÑÑÑÑÑÑÑÑÑÑÑÑÑÑÑÑÑÑÑÑÑÑÑÑÑÑÑÑÑÑÑÑÑ

Format : AVI
Format/Info : Audio Video Interleave
File size : 50.0 MiB
Duration : 6mn 16s
Overall bit rate : 1 114 Kbps




ÑÑÑÑÑÑÑÑÑÑÑÑÑÑÑÑÑÑÑÑÑÑÑÑÑÑÑÑÑÑÑÑÑÑÑÑÑÑÑÑÑÑÑÑÑÑÑÑÑÑÑÑÑÑÑÑÑÑÑÑÑÑÑÑÑÑÑÑÑÑÑÑÑÑÑÑÑÑ
±±±±±±±± File Info: ±±±±±±±±
ÑÑÑÑÑÑÑÑÑÑÑÑÑÑÑÑÑÑÑÑÑÑÑÑÑÑÑÑÑÑÑÑÑÑÑÑÑÑÑÑÑÑÑÑÑÑÑÑÑÑÑÑÑÑÑÑÑÑÑÑÑÑÑÑÑÑÑÑÑÑÑÑÑÑÑÑÑÑ


Format : AVI
Format/Info : Audio Video Interleave
File size : 800 MiB
Duration : 1h 44mn
Overall bit rate : 1 070 Kbps

Video
Format : MPEG-4 Visual
Format settings, BVOP : No
Format settings, QPel : No
Format settings, GMC : No warppoints
Format settings, Matrix : Default
Codec ID : DX50
Codec ID/Hint : DivX 5
Duration : 1h 44mn
Bit rate : 931 Kbps
Width : 576 pixels
Height : 320 pixels
Display aspect ratio : 16/9
Frame rate : 29.969 fps
Resolution : 24 bits
Colorimetry : 4:2:0
Scan type : Progressive
Bits/(Pixel*Frame) : 0.168
Stream size : 696 MiB (87%)
Writing library : DivX 6.0.0 (UTC 2005-06-15)

Audio
Format : MPEG Audio
Format version : Version 1
Format profile : Layer 3
Codec ID : 55
Codec ID/Hint : MP3
Duration : 1h 44mn
Bit rate mode : Constant
Bit rate : 128 Kbps
Channel(s) : 2 channels
Sampling rate : 48.0 KHz
Resolution : 16 bits
Stream size : 95.7 MiB (12%)
Alignment : Split accross interleaves
Interleave, duration : 33 ms (1.00 video frame)
Interleave, preload duration : 500 ms
Writing library : LAME3.96



ÑÑÑÑÑÑÑÑÑÑÑÑÑÑÑÑÑÑÑÑÑÑÑÑÑÑÑÑÑÑÑÑÑÑÑÑÑÑÑÑÑÑÑÑÑÑÑÑÑÑÑÑÑÑÑÑÑÑÑÑÑÑÑÑÑÑÑÑÑÑÑÑÑÑÑÑÑÑ
±±±±±±±± Tracker Info: ±±±±±±±±
ÑÑÑÑÑÑÑÑÑÑÑÑÑÑÑÑÑÑÑÑÑÑÑÑÑÑÑÑÑÑÑÑÑÑÑÑÑÑÑÑÑÑÑÑÑÑÑÑÑÑÑÑÑÑÑÑÑÑÑÑÑÑÑÑÑÑÑÑÑÑÑÑÑÑÑÑÑÑ
ÆÑÆAA. .AAÆÑÆ
ÆÑÆA AÆÑÆ
ÆÑÆ http://genesis.1337x.org:1337/announce ÆÑÆ
ÆÑÆA AÆÑÆ
ÆÑÆAA. .AAÆÑÆ
ÑÑÑÑÑÑÑÑÑÑÑÑÑÑÑÑÑÑÑÑÑÑÑÑÑÑÑÑÑÑÑÑÑÑÑÑÑÑÑÑÑÑÑÑÑÑÑÑÑÑÑÑÑÑÑÑÑÑÑÑÑÑÑÑÑÑÑÑÑÑÑÑÑÑÑÑÑÑ
±±±±±±±± ±±±±±±±±
±±±±±±±± Visit: www.1337x.org For More Quality Releases ±±±±±±±±
±±±±±±±± ±±±±±±±±
ÑÑÑÑÑÑÑÑÑÑÑÑÑÑÑÑÑÑÑÑÑÑÑÑÑÑÑÑÑÑÑÑÑÑÑÑÑÑÑÑÑÑÑÑÑÑÑÑÑÑÑÑÑÑÑÑÑÑÑÑÑÑÑÑÑÑÑÑÑÑÑÑÑÑÑÑÑÑ
±±±±±±±± ±±±±±±±±
±±±±±±±± PLEASE SEED BACK AT LEAST WHAT YOU DOWNLOAD!!! ±±±±±±±±
±±±±±±±± 11/08 ±±±±±±±±
ÑÑÑÑÑÑÑÑÑÑÑÑÑÑÑÑÑÑÑÑÑÑÑÑÑÑÑÑÑÑÑÑÑÑÑÑÑÑÑÑÑÑÑÑÑÑÑÑÑÑÑÑÑÑÑÑÑÑÑÑÑÑÑÑÑÑÑÑÑÑÑÑÑÑÑÑÑÑ





...




related torrents

Torrent name

health leech seeds Size
 


comments (0)

Main Menu