Action

WT Lausbubengeschichten Teil1 und 2 Tante Frieda

  • Download 5x Faster
  • Download torrent
  • Direct Download
  • Rate this torrent +  |  -
WT Lausbubengeschichten Teil1 und 2 Tante Frieda

Free and Direct Download with Usenet.nl 300GB+ free


Torrent info

Name:WT Lausbubengeschichten Teil1 und 2 Tante Frieda

Total Size: 1.37 GB

Magnet: Magnet Link

Seeds: 2

Leechers: 1

Stream: Watch Online @ Movie4u

Last Updated: 2010-07-29 15:51:39 (Update Now)

Torrent added: 2008-11-28 16:35:37





Torrent Files List


LausbubengeschichtenTeil2 Tante Frieda.avi (Size: 1.37 GB) (Files: 2)

 LausbubengeschichtenTeil2 Tante Frieda.avi

699.23 MB

 Ludwig Thomas Lausbubengeschichten Teil1.avi

698.60 MB
 

Announce URL: http://walhalla.webhop.net/announce.php?passkey=

Torrent description


Der Lausbub Ludwig Thoma (Hansi Kraus) hält, sehr zur Betrübnis seiner Mutter Therese (Käthe Braun), mit seinen Streichen sein bayerisches Heimatdorf in Atem. Er treibt hochnäsige Preußen, wie den Geheimrat Bischof (Georg Thomalla), den frömmelnden Lehrer Falkenberg alias Kindlein (Rudolf Rhomberg) sowie nörgelnde Verwandte wie die Tante Frieda (Elisabeth Flickenschildt) zur Verzweiflung. Verständnis findet er eigentlich nur bei seinem Patenonkel, dem Landtagsabgeordneten Josef Filser (Michl Lang).

teile 3bis 5 folgen noch

Allgemein
Vollständiger Name : Lausbubengeschichten Teil 1 und 2 Tante frida
Format : AVI
Format/Info : Audio Video Interleave
Dateigröße : 699 MiB
Duration : 1h 23min
Gesamte Bitrate : 1169 Kbps
Verwendetes Programm : VirtualDubMod 1.5.4.1 (build 2178/release)
verwendete Encoder-Bibliothek : VirtualDubMod build 2178/release
IAS1 : Deutsch

Video
Format : MPEG-4 Visual
Format profile : Streaming [email protected]
Format settings, BVOP : Ja
Format settings, QPel : Nein
Format settings, GMC : No warppoints
Format settings, Matrix : Custom
Codec ID : XVID
Codec ID/Hint : XviD
Duration : 1h 23min
Bitrate : 1034 Kbps
Breite : 720 Pixel
Höhe : 432 Pixel
Bildseitenverhältnis : 1.667
Bildwiederholungsrate : 25.000 FPS
Auflösung : 8 bits
Colorimetry : 4:2:0
Scan type : Progressive
Bits/(Pixel*Frame) : 0.133
Stream size : 618 MiB (88%)
verwendete Encoder-Bibliothek : XviD 1.2.0.dev42 (UTC 2005-12)

Audio
Format : MPEG Audio
Format version : Version 1
Format profile : Layer 3
Codec ID : 55
Codec ID/Hint : MP3
Duration : 1h 23min
Bitraten-Modus : Constant
Bitrate : 128 Kbps
Minimum bit rate : 128 Kbps
Kanäle : 2 Kanäle
Samplingrate : 48.0 KHz
Auflösung : 16 bits
Stream size : 76.5 MiB (11%)
Alignment : Aligned on interleaves
Interleave, duration : 80 ms (2.00 video frames)
Interleave, preload duration : 504 ms
verwendete Encoder-Bibliothek : LAME3.97b
Kodierungseinstellungen : CBR

related torrents

Torrent name

health leech seeds Size
 

comments (0)

Main Menu