TV - Other

PAN TAU Alle Folgen Teil 16 26 TVRiP DivX

  • Download 5x Faster
  • Download torrent
  • Direct Download
  • Rate this torrent +  |  -
PAN TAU Alle Folgen Teil 16 26 TVRiP DivX

Anonymous and free Direct Download 300GB+


Torrent info

Name:PAN TAU Alle Folgen Teil 16 26 TVRiP DivX

Total Size: 2.51 GB

Magnet: Magnet Link

Seeds: 0

Leechers: 0

Stream: Watch Online @ Movie4u

Last Updated: 2016-12-02 10:14:44 (Update Now)

Torrent added: 2008-11-27 16:45:41



VPN For Torrents

Torrent Files List


Pan-Tau-16-26.part01.rar (Size: 2.51 GB) (Files: 27)

 Pan-Tau-16-26.part01.rar

95.37 MB

 Pan-Tau-16-26.part02.rar

95.37 MB

 Pan-Tau-16-26.part03.rar

95.37 MB

 Pan-Tau-16-26.part04.rar

95.37 MB

 Pan-Tau-16-26.part05.rar

95.37 MB

 Pan-Tau-16-26.part06.rar

95.37 MB

 Pan-Tau-16-26.part07.rar

95.37 MB

 Pan-Tau-16-26.part08.rar

95.37 MB

 Pan-Tau-16-26.part09.rar

95.37 MB

 Pan-Tau-16-26.part10.rar

95.37 MB

 Pan-Tau-16-26.part11.rar

95.37 MB

 Pan-Tau-16-26.part12.rar

95.37 MB

 Pan-Tau-16-26.part13.rar

95.37 MB

 Pan-Tau-16-26.part14.rar

95.37 MB

 Pan-Tau-16-26.part15.rar

95.37 MB

 Pan-Tau-16-26.part16.rar

95.37 MB

 Pan-Tau-16-26.part17.rar

95.37 MB

 Pan-Tau-16-26.part18.rar

95.37 MB

 Pan-Tau-16-26.part19.rar

95.37 MB

 Pan-Tau-16-26.part20.rar

95.37 MB

 Pan-Tau-16-26.part21.rar

95.37 MB

 Pan-Tau-16-26.part22.rar

95.37 MB

 Pan-Tau-16-26.part23.rar

95.37 MB

 Pan-Tau-16-26.part24.rar

95.37 MB

 Pan-Tau-16-26.part25.rar

95.37 MB

 Pan-Tau-16-26.part26.rar

95.37 MB

 Pan-Tau-16-26.part27.rar

87.77 MB
 

tracker

leech seeds
 

Torrent description

!!GERMAN TRACKER!!


16. Pan Tau im Ballon

17. Pan Tau und der Ziegenhund

18. Pan Tau und die Verwandten

19. Pan Tau macht Quark

20. Pan Tau wird untersucht

21. Pan Tau und vereinzelt Sonnenschein

22. Pan Tau tanzt aus der Reihe

23. Pan Tau und die Jagd auf den Frosch

24. Pan Tau und der Blechschaden

25. Pan Tau baut um

26. Pan Tau unbekannt verzogen



Der Rest kommt dann um Schluss !!!!

Format : AVI
Format/Info : Audio Video Interleave
Dateigre : 210 MiB
Duration : 25min
Gesamte Bitrate : 1157 Kbps
verwendete Encoder-Bibliothek : VirtualDub build 13722/release

Video
Format : MPEG-4 Visual
Format settings, BVOP : Ja
Format settings, QPel : Nein
Format settings, GMC : No warpoints
Format settings, Matrix : Default
Muxing mode : Packet Bitstream
Codec ID : DX50
Codec ID/Hint : DivX 5
Duration : 25min
Bitrate : 1051 Kbps
Breite : 640 Pixel
Hhe : 480 Pixel
Bildseitenverhltnis : 4/3
Bildwiederholungsrate : 25.000 FPS
Auflsung : 8 bits
Colorimetry : 4:2:0
Scan type : Progressive
Bits/(Pixel*Frame) : 0.137
Stream size : 191 MiB
verwendete Encoder-Bibliothek : DivX 5.0.5 (UTC 2003-04-24)

Audio
Format : MPEG Audio
Format version : Version 1
Format profile : Layer 3
Codec ID : 55
Codec ID/Hint : MP3
Duration : 25min
Bitraten-Modus : Constant
Bitrate : 96.0 Kbps
Kanle : 1 Kanal
Samplingrate : 44.1 KHz
Auflsung : 16 bits
Stream size : 17.5 MiB

related torrents

Torrent name

health leech seeds Size
 


comments (0)

Main Menu