Animation

Fly Me to the Moon(2008)3D VERSIONMiNdSkiN1337

  • Download 5x Faster
  • Download torrent
  • Direct Download
  • Rate this torrent +  |  -
Fly Me to the Moon(2008)3D VERSIONMiNdSkiN1337

Free and Direct Download with Usenet.nl 300GB+ free


Torrent info

Name:Fly Me to the Moon(2008)3D VERSIONMiNdSkiN1337

Total Size: 695.03 MB

Magnet: Magnet Link

Seeds: 1

Leechers: 45

Stream: Watch Online @ Movie4u

Last Updated: 2011-01-05 23:18:28 (Update Now)

Torrent added: 2008-11-27 16:37:09





Torrent Files List


cover.jpg (Size: 695.03 MB) (Files: 3)

 cover.jpg

112.98 KB

 Fly.Me.to.the.Moon(2008)[3D.VERSION][MiNdSkiN]1337x.avi

694.91 MB

 Fly.Me.to.the.Moon(2008)[3D.VERSION][MiNdSkiN]1337x.nfo

8.83 KB
 

Announce URL: http://genesis.1337x.org:1337/announce

Torrent description




...


DvdRip | DviX | Mp3 | 695 Mb ( 3D VERSION )


...



VIEW COVER


SCREENS ARE FROM 3D VERSION
THEY ARE SUPPOSE TO LOOK LIKE THIS!!!]

VIEW SCREENS


SCREENS ARE FROM 3D VERSION
THEY ARE SUPPOSE TO LOOK LIKE THIS!!!]



...




ÑÑÑÑÑÑÑÑÑÑÑÑÑÑÑÑÑÑÑÑÑÑÑÑÑÑÑÑÑÑÑÑÑÑÑÑÑÑÑÑÑÑÑÑÑÑÑÑÑÑÑÑÑÑÑÑÑÑÑÑÑÑÑÑÑÑÑÑÑÑÑÑÑÑÑÑÑÑ
ÆÑÆ ÆÑÆ
ÆÑÆ A 1337X Release By: MiNdSkiN ÆÑÆ
ÆÑÆ ÆÑÆ
ÑÑÑÑÑÑÑÑÑÑÑÑÑÑÑÑÑÑÑÑÑÑÑÑÑÑÑÑÑÑÑÑÑÑÑÑÑÑÑÑÑÑÑÑÑÑÑÑÑÑÑÑÑÑÑÑÑÑÑÑÑÑÑÑÑÑÑÑÑÑÑÑÑÑÑÑÑÑ
ÆÑÆAA. .AAÆÑÆ
ÆÑÆA AÆÑÆ
ÆÑÆ ÆÑÆ
ÆÑ .uuu ÑÆ
Æ z@#"%c .uuzm**"""""*%mu.. z*"` .e@#N Æ
@!!!R. #c .z*" ^*c z dT!!!!!>
'!!!!!!N "i u*" #s :" @?!!!!!!!R
t!!!!!!!#u "i .@ ^$ :R!!!!!!!!!X
'!!!!!!!!!#c "i:# ?> R!!!!!!!!!!X
'!!!!!!!!!!!N @ 4W!!!!!!!!!!!>
'!!!!!!!!!!!!Ru" ?!!!!!!!!!!X
'X!!!!!!!!!!!9~ . . 'X!!!!!!!!!6
R!!!!!!!!!!tF z$#` h &!!UR!!!!!F
?!!!!!!!!$ .@ X !!!!!X
M!!!!!i#U!E . @F ! FdR!!!!!!f
'X!!!!!#c'?u@#"*. :$ F'9!!!!!!!@
9!!!!!!!?NM ^*c dF ' @!!!!!!!X>
R!!!!!!!!& "e d K<!!!!!!!XF
'X!!!!!!!M> ^N f < E!!!!!!X"
t!!!!!!!# ^N :" .e$"^ Fn!!!!!XP
#X!!!!!!ML *c z" .e$$$$$ M'!!!!W*
"[email protected] ^%u. ""**#).zd$$#$$$$$$$ <*@**"
'N 4$$$$$@$$$)$$#$$$$$$$$$ :$
?> "$$$$$$":$$$$$ "$$$$$$$$ %
:" ? ^#*" S "$$$$$ ?
F L d X
& t @$$$ f
* $$$$$$$$$$& @
'*. W'$$$$$$$ h u#
Æ ^*muz* % $$$$$$": `" Æ
ÆÑ # ^**" d ÑÆ
ÆÑÆ "***" ÆÑÆ
ÆÑÆA AÆÑÆ
ÆÑÆAA. .AAÆÑÆ
ÑÑÑÑÑÑÑÑÑÑÑÑÑÑÑÑÑÑÑÑÑÑÑÑÑÑÑÑÑÑÑÑÑÑÑÑÑÑÑÑÑÑÑÑÑÑÑÑÑÑÑÑÑÑÑÑÑÑÑÑÑÑÑÑÑÑÑÑÑÑÑÑÑÑÑÑÑÑ
ÆÑÆ ÆÑÆ
ÆÑÆ A 1337x Release by MiNdSkiN ÆÑÆ
ÆÑÆ ÆÑÆ
ÑÑÑÑÑÑÑÑÑÑÑÑÑÑÑÑÑÑÑÑÑÑÑÑÑÑÑÑÑÑÑÑÑÑÑÑÑÑÑÑÑÑÑÑÑÑÑÑÑÑÑÑÑÑÑÑÑÑÑÑÑÑÑÑÑÑÑÑÑÑÑÑÑÑÑÑÑÑ
±±±±±±±± iMDb Movie Info: ±±±±±±±±
ÑÑÑÑÑÑÑÑÑÑÑÑÑÑÑÑÑÑÑÑÑÑÑÑÑÑÑÑÑÑÑÑÑÑÑÑÑÑÑÑÑÑÑÑÑÑÑÑÑÑÑÑÑÑÑÑÑÑÑÑÑÑÑÑÑÑÑÑÑÑÑÑÑÑÑÑÑÑ
ÆÑÆAA. .AAÆÑÆ
ÆÑÆA AÆÑÆ
ÆÑÆ ÆÑÆ
ÆÑÆ ÆÑÆ
ÆÑÆ |-------- Title | Fly Me to the Moon ÆÑÆ
ÆÑÆ ÆÑÆ
ÆÑÆ |--------- Year | 2008 ÆÑÆ
ÆÑÆ ÆÑÆ
ÆÑÆ |---- iMDb Rate | 5.0/10 (517 Votes) ÆÑÆ
ÆÑÆ ÆÑÆ
ÆÑÆ |----- iMDb URL | http://www.imdb.com/title/tt0486321/ ÆÑÆ
ÆÑÆ ÆÑÆ
ÆÑÆ |-------- Genre | Animation / Adventure / Family ÆÑÆ
ÆÑÆ ÆÑÆ
ÆÑÆ |--- Director/s | Ben Stassen ÆÑÆ
ÆÑÆ ÆÑÆ
ÆÑÆ |--------- Cast | Tim Curry, Robert Patrick, Kelly Ripa ÆÑÆ
ÆÑÆ ÆÑÆ
ÆÑÆ |--------- Plot | Three young houseflies stow away aboard the Apollo ÆÑÆ
ÆÑÆ 11 flight to the moon. ÆÑÆ
ÆÑÆ ÆÑÆ
ÆÑÆ ÆÑÆ
ÆÑÆA AÆÑÆ
ÆÑÆAA. .AAÆÑÆ
ÑÑÑÑÑÑÑÑÑÑÑÑÑÑÑÑÑÑÑÑÑÑÑÑÑÑÑÑÑÑÑÑÑÑÑÑÑÑÑÑÑÑÑÑÑÑÑÑÑÑÑÑÑÑÑÑÑÑÑÑÑÑÑÑÑÑÑÑÑÑÑÑÑÑÑÑÑÑ
±±±±±±±± File Info: ±±±±±±±±
ÑÑÑÑÑÑÑÑÑÑÑÑÑÑÑÑÑÑÑÑÑÑÑÑÑÑÑÑÑÑÑÑÑÑÑÑÑÑÑÑÑÑÑÑÑÑÑÑÑÑÑÑÑÑÑÑÑÑÑÑÑÑÑÑÑÑÑÑÑÑÑÑÑÑÑÑÑÑ




Format : AVI
Format/Info : Audio Video Interleave
File size : 695 MiB
Duration : 1h 8mn
Overall bit rate : 1 421 Kbps

Video
Format : MPEG-4 Visual
Format settings, BVOP : Yes
Format settings, QPel : No
Format settings, GMC : No warppoints
Format settings, Matrix : Default
Codec ID : DX50
Codec ID/Hint : DivX 5
Duration : 1h 8mn
Bit rate : 1 282 Kbps
Width : 560 pixels
Height : 320 pixels
Display aspect ratio : 16/9
Frame rate : 29.969 fps
Resolution : 24 bits
Colorimetry : 4:2:0
Scan type : Progressive
Bits/(Pixel*Frame) : 0.239
Stream size : 627 MiB (90%)
Writing library : DivX 6.0.0 (UTC 2005-06-15)

Audio
Format : MPEG Audio
Format version : Version 1
Format profile : Layer 3
Codec ID : 55
Codec ID/Hint : MP3
Duration : 1h 8mn
Bit rate mode : Constant
Bit rate : 128 Kbps
Channel(s) : 2 channels
Sampling rate : 48.0 KHz
Resolution : 16 bits
Stream size : 62.6 MiB (9%)
Alignment : Split accross interleaves
Interleave, duration : 33 ms (1.00 video frame)
Interleave, preload duration : 500 ms




ÑÑÑÑÑÑÑÑÑÑÑÑÑÑÑÑÑÑÑÑÑÑÑÑÑÑÑÑÑÑÑÑÑÑÑÑÑÑÑÑÑÑÑÑÑÑÑÑÑÑÑÑÑÑÑÑÑÑÑÑÑÑÑÑÑÑÑÑÑÑÑÑÑÑÑÑÑÑ
±±±±±±±± Tracker Info: ±±±±±±±±
ÑÑÑÑÑÑÑÑÑÑÑÑÑÑÑÑÑÑÑÑÑÑÑÑÑÑÑÑÑÑÑÑÑÑÑÑÑÑÑÑÑÑÑÑÑÑÑÑÑÑÑÑÑÑÑÑÑÑÑÑÑÑÑÑÑÑÑÑÑÑÑÑÑÑÑÑÑÑ
ÆÑÆAA. .AAÆÑÆ
ÆÑÆA AÆÑÆ
ÆÑÆ http://genesis.1337x.org:1337/announce ÆÑÆ
ÆÑÆA AÆÑÆ
ÆÑÆAA. .AAÆÑÆ
ÑÑÑÑÑÑÑÑÑÑÑÑÑÑÑÑÑÑÑÑÑÑÑÑÑÑÑÑÑÑÑÑÑÑÑÑÑÑÑÑÑÑÑÑÑÑÑÑÑÑÑÑÑÑÑÑÑÑÑÑÑÑÑÑÑÑÑÑÑÑÑÑÑÑÑÑÑÑ
±±±±±±±± ±±±±±±±±
±±±±±±±± Visit: www.1337x.org For More Quality Releases ±±±±±±±±
±±±±±±±± ±±±±±±±±
ÑÑÑÑÑÑÑÑÑÑÑÑÑÑÑÑÑÑÑÑÑÑÑÑÑÑÑÑÑÑÑÑÑÑÑÑÑÑÑÑÑÑÑÑÑÑÑÑÑÑÑÑÑÑÑÑÑÑÑÑÑÑÑÑÑÑÑÑÑÑÑÑÑÑÑÑÑÑ
±±±±±±±± ±±±±±±±±
±±±±±±±± PLEASE SEED BACK AT LEAST WHAT YOU DOWNLOAD!!! ±±±±±±±±
±±±±±±±± 08/08 ±±±±±±±±
ÑÑÑÑÑÑÑÑÑÑÑÑÑÑÑÑÑÑÑÑÑÑÑÑÑÑÑÑÑÑÑÑÑÑÑÑÑÑÑÑÑÑÑÑÑÑÑÑÑÑÑÑÑÑÑÑÑÑÑÑÑÑÑÑÑÑÑÑÑÑÑÑÑÑÑÑÑÑ


related torrents

Torrent name

health leech seeds Size
 

comments (0)

Main Menu