Thriller

Open Water avi

  • Download 5x Faster
  • Download torrent
  • Direct Download
  • Rate this torrent +  |  -
Open Water avi

Free and Direct Download with Usenet.nl 300GB+ free


Torrent info

Name:Open Water avi

Total Size: 1.37 GB

Magnet: Magnet Link

Seeds: 2

Leechers: 6

Stream: Watch Online @ Movie4u

Last Updated: 0000-00-00 00:00:00 (Update Now)

Torrent added: 2008-11-27 13:10:06





Torrent Files List


Open Water.avi (Size: 1.37 GB) (Files: 1)

 Open Water.avi

1.37 GB
 

Announce URL: http://tracker.tntvillage.scambioetico.org:2710/announce

Torrent description

Open water, [XviD - Ita Ac3 Eng Mp3][www.tntvillage.scambioetico.org]

Scheda del film

Titolo: Open water
Titolo originale: Open water
Nazionalità: USA
Anno: 2003
Genere: Thriller
Regia: Chris Kentis
Produzione: Laura Lau
Distribuzione: Eagle Pictures
Data di uscita: 19 Agosto 2004 (cinema)

Cast

Blanchard Ryan, Daniel Travis, Saul Stein, Estelle Lau, Michael E. Williamson, Christina Zenarro, Jon Charles

Scheda tecnica del DivX (Mediainfo)

General
Complete name : Open Water.avi
Format : AVI
Format/Info : Audio Video Interleave
File size : 1.37 GiB
Duration : 1h 16mn
Overall bit rate : 2 562 Kbps
Writing application : VirtualDubMod 1.5.4.1 (build 2178/release)
Writing library : VirtualDubMod build 2178/release

Video
Format : MPEG-4 Visual
Format profile : Streaming [email protected]
Format settings, BVOP : Yes
Format settings, QPel : No
Format settings, GMC : No warppoints
Format settings, Matrix : Custom
Codec ID : XVID
Codec ID/Hint : XviD
Duration : 1h 16mn
Bit rate : 1 984 Kbps
Width : 624 pixels
Height : 336 pixels
Display aspect ratio : 1.857
Frame rate : 25.000 fps
Resolution : 24 bits
Colorimetry : 4:2:0
Scan type : Progressive
Bits/(Pixel*Frame) : 0.379
Stream size : 1.06 GiB (77%)
Writing library : XviD 1.2.0.dev47 (UTC 2006-11-01)

Audio #1
Format : AC-3
Format/Info : Audio Coding 3
Codec ID : 2000
Duration : 1h 16mn
Bit rate mode : Constant
Bit rate : 448 Kbps
Channel(s) : 6 channels
Channel positions : Front: L C R, Surround: L R, LFE
Sampling rate : 48.0 KHz
Stream size : 245 MiB (17%)
Alignment : Aligned on interleaves
Interleave, duration : 96 ms (2.40 video frames)
Interleave, preload duration : 96 ms
Language : Italiano

Audio #2
Format : MPEG Audio
Format version : Version 1
Format profile : Layer 3
Codec ID : 55
Codec ID/Hint : MP3
Duration : 1h 16mn
Bit rate mode : Variable
Bit rate : 115 Kbps
Minimum bit rate : 128 Kbps
Channel(s) : 2 channels
Sampling rate : 48.0 KHz
Resolution : 16 bits
Stream size : 62.7 MiB (4%)
Alignment : Aligned on interleaves
Interleave, duration : 24 ms (0.60 video frame)
Interleave, preload duration : 160 ms
Writing library : LAME3.97
Encoding settings : ABR
Language : English


related torrents

Torrent name

health leech seeds Size

Open Water 1 Amp 2

5 6 2.00 GB 0
 

comments (0)

Main Menu