Action

Sukiyaki Western Django 2007 DVDRIP XviD ZEKTORM

  • Download 5x Faster
  • Download torrent
  • Direct Download
  • Rate this torrent +  |  -
Sukiyaki Western Django 2007 DVDRIP XviD ZEKTORM

Free and Direct Download with Usenet.nl 300GB+ free


Torrent info

Name:Sukiyaki Western Django 2007 DVDRIP XviD ZEKTORM

Total Size: 704.29 MB

Magnet: Magnet Link

Seeds: 0

Leechers: 0

Stream: Watch Online @ Movie4u

Last Updated: 0000-00-00 00:00:00 (Update Now)

Torrent added: 2008-11-27 12:35:26





Torrent Files List


READ.hlp (Size: 704.29 MB) (Files: 4)

 READ.hlp

2.18 KB

 Subs

  Sukiyaki.Western.Django.2007.DVDRIP.XviD-ZEKTORM.idx

59.95 KB

  Sukiyaki.Western.Django.2007.DVDRIP.XviD-ZEKTORM.sub

3.78 MB

 Sukiyaki.Western.Django.2007.DVDRIP.XviD-ZEKTORM.avi

700.45 MB
 

Announce URL:

Torrent description

Title : Sukiyaki Western Django
Year : 2007
Genre : Action | Western
iMDB Rate : User Rating: 6.8/10 2,251 votes
iMDB URL : http://www.imdb.com/title/tt0906665/
Awards : 3 wins & 1 nomination

Complete name : Sukiyaki.Western.Django.2007.DVDRIP.XviD-ZEKTORM.avi
Format : AVI
Format/Info : Audio Video Interleave
File size : 700 MiB
Duration : 1h 38mn
Overall bit rate : 993 Kbps
Subtitles : English, Spanish (Format: VobSub)
Source : DVD NTSC

Video
Format : MPEG-4 Visual
Format profile : Streaming [email protected]
Codec ID : XVID
Duration : 1h 38mn
Bit rate : 874 Kbps
Width : 720 pixels
Height : 320 pixels
Display aspect ratio : 2.25
Frame rate : 23.976 fps
Resolution : 24 bits
Colorimetry : 4:2:0
Scan type : Progressive
Bits/(Pixel*Frame) : 0.158
Stream size : 617 MiB (88%)
Writing library : XviD 1.2.0.dev47 (UTC 2006-11-01)

Audio
Format : MPEG Audio
Format version : Version 1
Format profile : Layer 3
Codec ID : 55
Codec ID/Hint : MP3
Duration : 1h 38mn
Bit rate mode : Constant
Bit rate : 112 Kbps
Minimum bit rate : 112 Kbps
Channel(s) : 2 channels
Sampling rate : 44.1 KHz
Resolution : 16 bits
Stream size : 79.0 MiB (11%)
Writing library : LAME3.97
Encoding settings : CBR

related torrents

Torrent name

health leech seeds Size
 

comments (0)

Main Menu