TV - Other

Avrupa Yakasi 171 (26 11 2008) erhan00 avi

  • Download 5x Faster
  • Download torrent
  • Direct Download
  • Rate this torrent +  |  -
Avrupa Yakasi 171 (26 11 2008) erhan00 avi

Anonymous and Direct Download 300GB+ free


Torrent info

Name:Avrupa Yakasi 171 (26 11 2008) erhan00 avi

Total Size: 617.79 MB

Magnet: Magnet Link

Seeds: 1

Leechers: 0

Stream: Watch Online @ Movie4u

Last Updated: 2010-11-30 01:27:13 (Update Now)

Torrent added: 2008-11-27 08:00:39




Torrent Files List


Avrupa Yakasi 171 (26.11.2008) erhan00.avi (Size: 617.79 MB) (Files: 1)

 Avrupa Yakasi 171 (26.11.2008) erhan00.avi

617.79 MB
 

Announce URL: http://open.tracker.thepiratebay.org/announce

Torrent description

General

Format : AVI
Format/Info : Audio Video Interleave
File size : 618 MiB
Duration : 1h 17mn
Overall bit rate : 1 114 Kbps
Writing library : Boilsoft Joiner build 2411/release

Video
Format : MPEG-4 Visual
Format profile : [email protected]
Format settings, BVOP : No
Format settings, QPel : No
Format settings, GMC : No warppoints
Format settings, Matrix : Default
Codec ID : XVID
Codec ID/Hint : XviD
Duration : 1h 17mn
Bit rate : 976 Kbps
Width : 512 pixels
Height : 384 pixels
Display aspect ratio : 4/3
Frame rate : 25.000 fps
Resolution : 24 bits
Colorimetry : 4:2:0
Scan type : Progressive
Bits/(Pixel*Frame) : 0.199
Stream size : 541 MiB (88%)
Writing library : Lavc50.0.0

Audio
Format : MPEG Audio
Format version : Version 1
Format profile : Layer 3
Codec ID : 55
Codec ID/Hint : MP3
Duration : 1h 17mn
Bit rate mode : Constant
Bit rate : 128 Kbps
Channel(s) : 2 channels
Sampling rate : 44.1 KHz
Resolution : 16 bits
Stream size : 71.0 MiB (11%)
Alignment : Split accross interleaves
Interleave, duration : 40 ms (1.00 video frame)
Interleave, preload duration : 500 ms

related torrents

Torrent name

health leech seeds Size

Le Soir 26/11/2008

0 0 12.42 MB 0
 


comments (0)

Main Menu