Comedy

Four Weddings and a Funeral (1994) Opt MULTISUBS

  • Download 5x Faster
  • Download torrent
  • Direct Download
  • Rate this torrent +  |  -
Four Weddings and a Funeral (1994) Opt MULTISUBS

Free and Direct Download with Usenet 300GB+ free


Torrent info

Name:Four Weddings and a Funeral (1994) Opt MULTISUBS

Total Size: 719.63 MB

Magnet: Magnet Link

Seeds: 0

Leechers: 0

Stream: Watch Online @ Movie4u

Last Updated: 0000-00-00 00:00:00 (Update Now)

Torrent added: 2008-11-25 15:32:42




Torrent Files List


AA-Sample (Size: 719.63 MB) (Files: 20)

 AA-Sample

  AA-Sample-Four Weddings and a Funeral (1994)_Kuth.avi

13.23 MB

 Four Weddings and a Funeral (1994) Hugh Grant (Opt.MULTISUBS)_Kuth.avi

694.76 MB

 Info about this release.txt

4.80 KB

 Optional subtitles

  Czech.rar

708.52 KB

  Dansk.rar

743.91 KB

  English.rar

958.55 KB

  Espanol.rar

732.28 KB

  Francais.rar

681.06 KB

  Greek.rar

832.83 KB

  Hrvatski.rar

720.63 KB

  Hungarian.rar

718.96 KB

  Nederlands.rar

696.35 KB

  Norsk.rar

719.13 KB

  Notes on subtitle files and burning of discs.txt

2.20 KB

  Polski.rar

780.81 KB

  Portugues.rar

701.90 KB

  Romanian.rar

719.96 KB

  Slovenian.rar

722.94 KB

  Suomiseksi.rar

761.04 KB

  Svenska.rar

710.79 KB
 

Announce URL:

Torrent description

Four Weddings and a Funeral (1994)

Optional subtitles in separate idx/sub files:
Croatian (Hrvatski), Czech, Danish, Dutch, English, Finnish, French, Greek, Hungarian, Norwegian, Polish, Portuguese, Romanian, Spanish, Slovenian, Swedish.

With Hugh Grant, Andie MacDowell (Bad Girls), Simon Callow, John Hannah

The film follows the fortunes of Charles and his friends as they wonder if they will ever find true love and marry. Charles thinks he's found "Miss Right" in Carrie, an American. This British subtle comedy revolves around Charlie, his friends and the four weddings and one funeral which they attend.

This gem of a classic comedy should be seen at least once a year. I made a new rip with widescreen and optional multisubs for those of you who would join me.


My new ripping procedure now produces decent quality for such a long film compressed into just 700 MiB. I enclose a sample for ye weak in faith.

Widescreen DVDrip XviD 2-pass 720x368, really great stereo sound AC3.
Burn tested, runs well in both my standalone DivX players.

MediaInfo analysis:
Format/Info : Audio Video Interleave
File size : 695 MiB
Duration : 1h 53mn
Overal bit rate : 860 Kbps

Video
Format : MPEG-4 Visual
Format profile : Streaming [email protected]
Format settings, BVOP : Yes
Format settings, QPel : No
Format settings, GMC : No warppoints
Format settings, Matrix : Default
Muxing mode : Packet Bitstream
Codec ID : XVID
Codec ID/Hint : XviD
Duration : 1h 53mn
Bit rate : 722 Kbps
Width : 720 pixels
Height : 368 pixels
Display aspect ratio : 1.957
Frame rate : 25.000 fps
Resolution : 8 bits
Colorimetry : 4:2:0
Scan type : Progressive
Bits/(Pixel*Frame) : 0.109
Stream size : 583 MiB
Writing library : XviD 1.2.0.dev47 (UTC 2006-11-01)

Audio
Format : MPEG Audio
Format version : Version 1
Format profile : Layer 3
Codec ID : 55
Codec ID/Hint : MP3
Duration : 1h 53mn
Bit rate mode : Constant
Bit rate : 128 Kbps
Minimum bit rate : 128 Kbps
Channel(s) : 2 channels
Sampling rate : 48.0 KHz
Resolution : 16 bits
Stream size : 103 MiB
Writing library : LAME3.97
Encoding settings : CBR

Source: PAL retail (note that PAL/NTSC will give no problems for avi files).

Thanks to Kuthumi!

related torrents

Torrent name

health leech seeds Size
 

comments (0)

Main Menu