Animation

Space Chimps(2008)DvdRipMiNdSkiN1337x

  • Download 5x Faster
  • Download torrent
  • Direct Download
  • Rate this torrent +  |  -
Space Chimps(2008)DvdRipMiNdSkiN1337x

Anonymous and Direct Download 300GB+ free


Torrent info

Name:Space Chimps(2008)DvdRipMiNdSkiN1337x

Total Size: 667.05 MB

Magnet: Magnet Link

Seeds: 1

Leechers: 9

Stream: Watch Online @ Movie4u

Last Updated: 2010-09-22 10:49:37 (Update Now)

Torrent added: 2008-11-24 04:34:35




Torrent Files List


poster.jpg (Size: 667.05 MB) (Files: 3)

 poster.jpg

24.72 KB

 Space.Chimps(2008)DvdRip[MiNdSkiN]1337x.avi

667.02 MB

 Space.Chimps(2008)DvdRip[MiNdSkiN]1337x.nfo

8.32 KB
 

Announce URL: http://genesis.1337x.org:1337/announce

Torrent description




...


VIEW COVER

VIEW SCREENS


...




MMMMMMMMMMMMMMMMMMMMMMMMMMMMMMMMMMMMMMMMMMMMMMMMMMMMMMMMMMMMMMMMMMMMMMMMMMMMMM
M-[www.1337x.org]-MMMMMMMMMMMMMMMDO$77I777II7777$-[www.1337x.org]-M
MMMMMMMMMMMMMMMMMMMMMMMMMMO7II??+++====~~=++==~==+++??77
MMMMMMMMMMMMMMMMMMMMMMDII?=~~=+++++=++=+==??+++++========?I7$8MMMMMMMMMMMMMMMM
MMMMMMMMMMMMMMMMMMMNI??=~++++++???I++????++I????++?++=?++===+?7
MMMMMMMMMMMMMMMMMNI+=~~++???II??I$777I777III777III?+===+=~~=?
MMMMMMMMMMMMMMMM7?=~=+????I7777$$$$$$7$$$$$$$??I??++=+~~?7$8MMMMMMMMMM
MMMMMMMMMMMMMM$7+~~+??+II?I7777II7?ZI77II$$$$$$$7III?+??++=~+7
MMMMMMMMMMMMM+~++I$?III?II77II7I7III?+7I7$$$$$???+++=++~=?7ZMMMMMMMM
MMMMMMMMMMMNZI==??I$+???+=?I??I77I+II??I?II77Z$$$$7?7II???=??+++++=++
MMMMMMMMMMDZ7+==I????+++=+I7+II?+??+??+?+?I7$$$$?+?II++=====+==~~I
MMMMMMMMMMZ7+~++???+=~~~~~?+=?+=?+?++++=??I77$7$?===~=~~~==+==~~+7ZOMMMMM
MMMMMMMMMO~++?I?+=~::~~+=~=+===+?==+++??I7777$$$77II?~=+~~::~~~===?~?7ZDMMMM
MMMMMMMMNZ7+=I+II?+~:,:::~~~~===~=+=~+++?I7$7ZZZZZ$$+??~=~~::::~~~=++~=?
MMMMMMMMZ+~=I77=~::,::::~=++=+=~~~=?=I7$$+?+=~~~:~:,~~=+=+==~I
MMMMMMMDZ7?==?I+?~:,::::++??????+?+?III77$$77?+=~~:~~::~=??+++~=78MMM
MMMMMMMZ+7+I77++~~:::=~=?II?II?I??III?II7$7$7I?+~~=~::::~~++++=?~?
MMMMMMDZ7?7O$+I7?~~~~=??I?=??+++=++?????I7$7I+?+~:::::=~=?+?+==+
MMMMMMZ?O8O7II+==~=+?II77??=======++?7ZOO8O88DDD8OOZ~+~~~:~==+?+?=?+=
MMMMMMZ7I$8DDO?II+++???II+??++++++?7I7?++~=::=+??II+=+=7DMM
MMMMMM?ODNND$=????IIII??II7I7I7I7II7?=+~~~++?I7I++++
MMMMMM7IZ8DNNMNO7==????I?II7II7I??????I$7++=++====?7I?+=+
MMMMMMIOOOODMMMMDO7???+=+??II7II?IIII$$8DNNNNNNNNNNNDD8OZ7IIII??+=??I???=?
MMMMMMOO8$$8MMMMN8Z77777++??77$$$$$$$7I+IIII77?=?
MMMMMMMODN+.OMMMMD?=++NNNND8Z$$$$7III?II?+7
MMMMMMMOMNN88DZOMD$???II$+:DND87+MNNDD888OZOZ$777$7?777
MMMMMM~DN8N.NMMN887+++?I+7NMMD~8~IIMND88888OOOZ$$777ZO$
MMMMM7D88OO,:ZD88ZI+=+?I~:NOIM$$=N++NNNNNDD888OOOOO888O$
MMMM788DDZ.7NMNN8$?+++I7ZO8DNMMMMMMMMMMMM$8M8ND$7$7DNNNNNDDDDMMMMNNDO$
MMMM88DD$...+ONDO7?+?I7?OMMMMM7ODMZINMMMMNNNNNMMMMMN8O$
MMM?OODDI....ON8Z7I?I7ZO8DNMMMMMMMMMMMMM+=7NMMMM8
ÑÑÑÑÑÑÑÑÑÑÑÑÑÑÑÑÑÑÑÑÑÑÑÑÑÑÑÑÑÑÑÑÑÑÑÑÑÑÑÑÑÑÑÑÑÑÑÑÑÑÑÑÑÑÑÑÑÑÑÑÑÑÑÑÑÑÑÑÑÑÑÑÑÑÑÑÑÑ
ÆÑÆ ÆÑÆ
ÆÑÆ A 1337x Release by MiNdSkiN ÆÑÆ
ÆÑÆ ÆÑÆ
ÑÑÑÑÑÑÑÑÑÑÑÑÑÑÑÑÑÑÑÑÑÑÑÑÑÑÑÑÑÑÑÑÑÑÑÑÑÑÑÑÑÑÑÑÑÑÑÑÑÑÑÑÑÑÑÑÑÑÑÑÑÑÑÑÑÑÑÑÑÑÑÑÑÑÑÑÑÑ
±±±±±±±± iMDb Movie Info: ±±±±±±±±
ÑÑÑÑÑÑÑÑÑÑÑÑÑÑÑÑÑÑÑÑÑÑÑÑÑÑÑÑÑÑÑÑÑÑÑÑÑÑÑÑÑÑÑÑÑÑÑÑÑÑÑÑÑÑÑÑÑÑÑÑÑÑÑÑÑÑÑÑÑÑÑÑÑÑÑÑÑÑ
ÆÑÆAA. .AAÆÑÆ
ÆÑÆA AÆÑÆ
ÆÑÆ ÆÑÆ
ÆÑÆ ÆÑÆ
ÆÑÆ |-------- Title | Space Chimps ÆÑÆ
ÆÑÆ ÆÑÆ
ÆÑÆ |--------- Year | 2008 ÆÑÆ
ÆÑÆ ÆÑÆ
ÆÑÆ |---- iMDb Rate | 0/10 ÆÑÆ
ÆÑÆ ÆÑÆ
ÆÑÆ |----- iMDb URL | http://akas.imdb.com/title/tt0482603 ÆÑÆ
ÆÑÆ ÆÑÆ
ÆÑÆ |-------- Genre | Animation / Adventure / Comedy / Family ÆÑÆ
ÆÑÆ ÆÑÆ
ÆÑÆ |--- Director/s | Kirk De Micco ÆÑÆ
ÆÑÆ ÆÑÆ
ÆÑÆ |--------- Cast | Andy Samberg, Cheryl Hines, Jeff Daniels ÆÑÆ
ÆÑÆ ÆÑÆ
ÆÑÆ |--------- Plot | Ham III, the grandson of the first chimp astronaut, ÆÑÆ
ÆÑÆ is blasted off into space by an ÆÑÆ
ÆÑÆ opportunity-seeking senator... ÆÑÆ
ÆÑÆ ÆÑÆ
ÆÑÆ ÆÑÆ
ÆÑÆA AÆÑÆ
ÆÑÆAA. .AAÆÑÆ
ÑÑÑÑÑÑÑÑÑÑÑÑÑÑÑÑÑÑÑÑÑÑÑÑÑÑÑÑÑÑÑÑÑÑÑÑÑÑÑÑÑÑÑÑÑÑÑÑÑÑÑÑÑÑÑÑÑÑÑÑÑÑÑÑÑÑÑÑÑÑÑÑÑÑÑÑÑÑ
±±±±±±±± File Info: ±±±±±±±±
ÑÑÑÑÑÑÑÑÑÑÑÑÑÑÑÑÑÑÑÑÑÑÑÑÑÑÑÑÑÑÑÑÑÑÑÑÑÑÑÑÑÑÑÑÑÑÑÑÑÑÑÑÑÑÑÑÑÑÑÑÑÑÑÑÑÑÑÑÑÑÑÑÑÑÑÑÑÑ

Format : AVI
Format/Info : Audio Video Interleave
File size : 667 MiB
Duration : 1h 4mn
Overall bit rate : 1 440 Kbps



Video
Format : MPEG-4 Visual
Format settings, BVOP : Yes
Format settings, QPel : No
Format settings, GMC : No warppoints
Format settings, Matrix : Default
Codec ID : DX50
Codec ID/Hint : DivX 5
Duration : 1h 4mn
Bit rate : 1 300 Kbps
Width : 480 pixels
Height : 272 pixels
Display aspect ratio : 16/9
Frame rate : 29.969 fps
Resolution : 24 bits
Colorimetry : 4:2:0
Scan type : Progressive
Bits/(Pixel*Frame) : 0.332
Stream size : 602 MiB (90%)
Writing library : DivX 6.0.0 (UTC 2005-06-15)


Audio
Format : MPEG Audio
Format version : Version 1
Format profile : Layer 3
Codec ID : 55
Codec ID/Hint : MP3
Duration : 1h 4mn
Bit rate mode : Constant
Bit rate : 128 Kbps
Channel(s) : 2 channels
Sampling rate : 48.0 KHz
Resolution : 16 bits
Stream size : 59.3 MiB (9%)
Alignment : Split accross interleaves
Interleave, duration : 33 ms (1.00 video frame)
Interleave, preload duration : 500 ms
Writing library : LAME3.96


ÑÑÑÑÑÑÑÑÑÑÑÑÑÑÑÑÑÑÑÑÑÑÑÑÑÑÑÑÑÑÑÑÑÑÑÑÑÑÑÑÑÑÑÑÑÑÑÑÑÑÑÑÑÑÑÑÑÑÑÑÑÑÑÑÑÑÑÑÑÑÑÑÑÑÑÑÑÑ
±±±±±±±± Tracker Info: ±±±±±±±±
ÑÑÑÑÑÑÑÑÑÑÑÑÑÑÑÑÑÑÑÑÑÑÑÑÑÑÑÑÑÑÑÑÑÑÑÑÑÑÑÑÑÑÑÑÑÑÑÑÑÑÑÑÑÑÑÑÑÑÑÑÑÑÑÑÑÑÑÑÑÑÑÑÑÑÑÑÑÑ
ÆÑÆAA. .AAÆÑÆ
ÆÑÆA AÆÑÆ
ÆÑÆ http://genesis.1337x.org:1337/announce ÆÑÆ
ÆÑÆA AÆÑÆ
ÆÑÆAA. .AAÆÑÆ
ÑÑÑÑÑÑÑÑÑÑÑÑÑÑÑÑÑÑÑÑÑÑÑÑÑÑÑÑÑÑÑÑÑÑÑÑÑÑÑÑÑÑÑÑÑÑÑÑÑÑÑÑÑÑÑÑÑÑÑÑÑÑÑÑÑÑÑÑÑÑÑÑÑÑÑÑÑÑ
±±±±±±±± ±±±±±±±±
±±±±±±±± Visit: www.1337x.org For More Quality Releases ±±±±±±±±
±±±±±±±± ±±±±±±±±
ÑÑÑÑÑÑÑÑÑÑÑÑÑÑÑÑÑÑÑÑÑÑÑÑÑÑÑÑÑÑÑÑÑÑÑÑÑÑÑÑÑÑÑÑÑÑÑÑÑÑÑÑÑÑÑÑÑÑÑÑÑÑÑÑÑÑÑÑÑÑÑÑÑÑÑÑÑÑ
±±±±±±±± ±±±±±±±±
±±±±±±±± PLEASE SEED BACK AT LEAST WHAT YOU DOWNLOAD!!! ±±±±±±±±
±±±±±±±± 08/08 ±±±±±±±±
ÑÑÑÑÑÑÑÑÑÑÑÑÑÑÑÑÑÑÑÑÑÑÑÑÑÑÑÑÑÑÑÑÑÑÑÑÑÑÑÑÑÑÑÑÑÑÑÑÑÑÑÑÑÑÑÑÑÑÑÑÑÑÑÑÑÑÑÑÑÑÑÑÑÑÑÑÑÑ




...


related torrents

Torrent name

health leech seeds Size
 


comments (0)

Main Menu