Drama

Il vento che accarezza lerba avi

  • Download 5x Faster
  • Download torrent
  • Direct Download
  • Rate this torrent +  |  -
Il vento che accarezza lerba avi

Anonymous and Free Direct Download


Torrent info

Name:Il vento che accarezza lerba avi

Total Size: 1.70 GB

Magnet: Magnet Link

Seeds: 10

Leechers: 13

Stream: Watch Online @ Movie4u

Last Updated: 0000-00-00 00:00:00 (Update Now)

Torrent added: 2008-11-23 08:06:31



VPN For Torrents

Torrent Files List


Il vento che accarezza l'erba.avi (Size: 1.70 GB) (Files: 1)

 Il vento che accarezza l'erba.avi

1.70 GB
 

Announce URL: http://tracker.tntvillage.scambioetico.org:2710/announce

Torrent description

Il vento che accarezza l\'erba, [Divx - Ita Ac3][www.tntvillage.scambioetico.org]

Scheda del film

Titolo:Il vento che accarezza l\'erba
Titolo originale:Il vento che accarezza l\'erba
Nazionalità:Gran Bretagna
Anno:2006
Genere:Drammatico
Regia:Ken Loach
Produzione:Pathé
Distribuzione:BIM
Data di uscita:Cannes 2006 (cinema) 10 Novembre 2006

Cast

Cillian Murphy, Padraic Delaney, Liam Cunningham, Gerard Kearney, William Ruane, Fergus Burke

Scheda tecnica del DivX (Mediainfo)

General
Complete name : Il vento che accarezza l\'erba.avi
Format : AVI
Format/Info : Audio Video Interleave
File size : 1.70 GiB
Duration : 2h 1mn
Overall bit rate : 2 003 Kbps
Writing application : VirtualDubMod 1.5.10.2 (build 2540/release)
Writing library : VirtualDub build 30009/release

Video
Format : MPEG-4 Visual
Format settings, BVOP : Yes
Format settings, QPel : No
Format settings, GMC : No warppoints
Format settings, Matrix : Default
Muxing mode : Packed bitstream
Codec ID : DX50
Codec ID/Hint : DivX 5
Duration : 2h 1mn
Bit rate : 1 545 Kbps
Width : 720 pixels
Height : 384 pixels
Display aspect ratio : 1.875
Frame rate : 25.000 fps
Resolution : 24 bits
Colorimetry : 4:2:0
Scan type : Progressive
Bits/(Pixel*Frame) : 0.224
Stream size : 1.31 GiB (77%)
Writing library : DivX 6.5.1 (UTC 2007-03)

Audio
Format : AC-3
Format/Info : Audio Coding 3
Codec ID : 2000
Duration : 2h 1mn
Bit rate mode : Constant
Bit rate : 448 Kbps
Channel(s) : 6 channels
Channel positions : Front: L C R, Surround: L R, LFE
Sampling rate : 48.0 KHz
Stream size : 388 MiB (22%)
Alignment : Aligned on interleaves
Interleave, duration : 40 ms (1.00 video frame)
Interleave, preload duration : 512 ms

related torrents

Torrent name

health leech seeds Size
 


comments (0)

Main Menu