Other

White Christmas 1954 x264 mp4

  • Download 5x Faster
  • Download torrent
  • Direct Download
  • Rate this torrent +  |  -
White Christmas 1954 x264 mp4

Free and Direct Download with Usenet 300GB+ free


Torrent info

Name:White Christmas 1954 x264 mp4

Total Size: 1.37 GB

Magnet: Magnet Link

Seeds: 0

Leechers: 0

Stream: Watch Online @ Movie4u

Last Updated: 2015-09-09 08:37:58 (Update Now)

Torrent added: 2008-11-23 07:26:57




Torrent Files List


White Christmas.1954.x264.CD1.mp4 (Size: 1.37 GB) (Files: 3)

 White Christmas.1954.x264.CD1.mp4

701.30 MB

 White Christmas.1954.x264.CD2.mp4

698.33 MB

 White Christmas.txt

4.04 KB
 

tracker

leech seeds
 

Torrent description

Title:
White Christmas
Plot:
A successful song-and-dance team become romantically involved with a sister act and team up to save the failing Vermont inn of their former commanding general.
Cast
(Complete credited cast)

Bing Crosby ... Bob Wallace

Danny Kaye ... Phil Davis

Rosemary Clooney ... Betty Haynes
Vera-Ellen ... Judy Haynes (as Vera Ellen)
Dean Jagger ... Major General Thomas F. Waverly

Mary Wickes ... Emma Allen
John Brascia ... John
Anne Whitfield ... Susan Waverly

File Info:
White Christmas.1954.x264.CD1.mp4
General
Format : MPEG-4
Format profile : Base Media
Codec ID : isom
File size : 701 MiB
Duration : 59mn 47s
Overall bit rate : 1640 Kbps
Encoded date : UTC 2008-11-22 01:19:22
Tagged date : UTC 2008-11-22 01:19:22
Video #1
Format : AVC
Format/Info : Advanced Video Codec
Format profile : [email protected]
Format settings, CABAC : Yes
Format settings, ReFrames : 3 frames
Codec ID : avc1
Duration : 59mn 47s
Bit rate mode : Variable
Bit rate : 1466 Kbps
Maximum bit rate : 3502 Kbps
Width : 704 pixels
Height : 384 pixels
Display aspect ratio : 16/9
Frame rate mode : Constant
Frame rate : 23.976 fps
Colorimetry : 4:2:0
Scan type : Progressive
Bits/(Pixel*Frame) : 0.226
Stream size : 631 MiB (90%)
Writing library : x264 core 65 r1028M 83baa7f
Encoded date : UTC 2008-11-22 01:17:35
Tagged date : UTC 2008-11-22 01:20:49
Audio #2
Format : AAC
Format/Info : Advanced Audio Codec
Format version : Version 4
Format profile : LC
Format settings, SBR : No
Codec ID : 40
Duration : 59mn 47s
Bit rate mode : Variable
Bit rate : 160 Kbps
Maximum bit rate : 196 Kbps
Channel(s) : 2 channels
Channel positions : L R
Sampling rate : 48.0 KHz
Resolution : 16 bits
Stream size : 68.4 MiB (10%)
Encoded date : UTC 2008-11-22 01:18:59
Tagged date : UTC 2008-11-22 01:20:49

White Christmas.1954.x264.CD2.mp4
General
Format : MPEG-4
Format profile : Base Media
Codec ID : isom
File size : 698 MiB
Duration : 1h 0mn
Overall bit rate : 1620 Kbps
Encoded date : UTC 2008-11-22 01:21:37
Tagged date : UTC 2008-11-22 01:21:37
Video #1
Format : AVC
Format/Info : Advanced Video Codec
Format profile : [email protected]
Format settings, CABAC : Yes
Format settings, ReFrames : 3 frames
Codec ID : avc1
Duration : 1h 0mn
Bit rate mode : Variable
Bit rate : 1466 Kbps
Maximum bit rate : 3502 Kbps
Width : 704 pixels
Height : 384 pixels
Display aspect ratio : 16/9
Frame rate mode : Constant
Frame rate : 23.976 fps
Colorimetry : 4:2:0
Scan type : Progressive
Bits/(Pixel*Frame) : 0.226
Stream size : 628 MiB (90%)
Encoded date : UTC 2008-11-22 01:17:35
Tagged date : UTC 2008-11-22 01:23:03
Audio #2
Format : AAC
Format/Info : Advanced Audio Codec
Format version : Version 4
Format profile : LC
Format settings, SBR : No
Codec ID : 40
Duration : 1h 0mn
Bit rate mode : Variable
Bit rate : 160 Kbps
Maximum bit rate : 196 Kbps
Channel(s) : 2 channels
Channel positions : L R
Sampling rate : 48.0 KHz
Resolution : 16 bits
Stream size : 69.0 MiB (10%)
Encoded date : UTC 2008-11-22 01:18:59
Tagged date : UTC 2008-11-22 01:23:03

related torrents

Torrent name

health leech seeds Size
 

comments (0)

Main Menu