Drama

Little Buddha (1993) Opt NORDIC and ENG SUBS

  • Download 5x Faster
  • Download torrent
  • Direct Download
  • Rate this torrent +  |  -
Little Buddha (1993) Opt NORDIC and ENG SUBS

Free and Direct Download with Usenet 300GB+ free


Torrent info

Name:Little Buddha (1993) Opt NORDIC and ENG SUBS

Total Size: 717.86 MB

Magnet: Magnet Link

Seeds: 0

Leechers: 0

Stream: Watch Online @ Movie4u

Last Updated: 2016-08-28 18:26:47 (Update Now)

Torrent added: 2008-11-21 16:40:12




Torrent Files List


AA-Sample (Size: 717.86 MB) (Files: 9)

 AA-Sample

  AA-Sample-Little Buddha (1993)_Kuth.avi

19.69 MB

 Info about this release.txt

5.00 KB

 Little Buddha (1993) Keanu Reeves (Optional NORDIC SUBS)_Kuth.avi

695.48 MB

 Optional subtitles

  Dansk.rar

642.25 KB

  English.rar

27.92 KB

  Norsk.rar

638.82 KB

  Notes on subtitle files and burning of discs.txt

2.48 KB

  Suomeksi.rar

762.24 KB

  Svenska.rar

685.42 KB
 

tracker

leech seeds
 

Torrent description

Little Buddha (1993)

Optional subtitles in separate idx/sub files:
Danish, Finnish, Norwegian, Swedish.
English (in srt format).

With Keanu Reeves, Bridget Fonda, Chris Isaak and Sogyal Rinpoche.
Written and directed by Bernardo Bertolucci.

A young American family in Seattle have their lives changed when a Buddhist monk claims that their young son is a holy man. Keanu Reeves got acclaim for his part as the Buddha, and singer Chris Isaak proved that he could also fill a major part as an actor.

A production error in northern Europe has left us without a retail DVD with multisubs for this film. One edition has only Finnish and Swedish subs, another (rental) has only Danish and Norwegian. I have combined the two editions in this package.

My new ripping procedure now produces decent quality for such a long film compressed into just 700 MiB. I enclose a sample for ye weak in faith.

Widescreen DVDrip XviD 2-pass 720x288, really great stereo sound AC3.
Burn tested, runs well in both my standalone DivX players.

MediaInfo analysis of this rip:
Format/Info : Audio Video Interleave
File size : 695 MiB
Duration : 2h 14mn
Overal bit rate : 720 Kbps

Video
Format : MPEG-4 Visual
Format profile : Streaming [email protected]
Format settings, BVOP : Yes
Format settings, QPel : No
Format settings, GMC : No warppoints
Format settings, Matrix : Default
Muxing mode : Packet Bitstream
Codec ID : XVID
Codec ID/Hint : XviD
Duration : 2h 14mn
Bit rate : 583 Kbps
Width : 720 pixels
Height : 288 pixels
Display aspect ratio : 2.500
Frame rate : 25.000 fps
Resolution : 8 bits
Colorimetry : 4:2:0
Scan type : Progressive
Bits/(Pixel*Frame) : 0.112
Stream size : 563 MiB
Writing library : XviD 1.2.0.dev47 (UTC 2006-11-01)

Audio
Format : MPEG Audio
Format version : Version 1
Format profile : Layer 3
Codec ID : 55
Codec ID/Hint : MP3
Duration : 2h 14mn
Bit rate mode : Constant
Bit rate : 128 Kbps
Minimum bit rate : 128 Kbps
Channel(s) : 2 channels
Sampling rate : 48.0 KHz
Resolution : 16 bits
Stream size : 124 MiB
Writing library : LAME3.97
Encoding settings : CBR

Source: PAL retail 6.2 GiB (note that PAL/NTSC will give no problems for avi files).

Thanks to Kuthumi!

related torrents

Torrent name

health leech seeds Size

Little Buddha (1993)

0 0 126.65 MB 0
 

comments (0)

Main Menu