Documentary

Body of War TvRip (2007)

  • Download 5x Faster
  • Download torrent
  • Direct Download
  • Rate this torrent +  |  -
Body of War TvRip (2007)

Free and Direct Download with Usenet 300GB+ free


Torrent info

Name:Body of War TvRip (2007)

Total Size: 700.05 MB

Magnet: Magnet Link

Seeds: 0

Leechers: 0

Stream: Watch Online @ Movie4u

Last Updated: 2012-07-31 12:40:53 (Update Now)

Torrent added: 2008-11-21 00:37:22




Torrent Files List


51A+hxZj5gL._SS500_.jpg (Size: 700.05 MB) (Files: 3)

 51A+hxZj5gL._SS500_.jpg

51.52 KB

 Body.of.War.2007.TVrip.xvid.mp3-snach.avi

700.00 MB

 Torrent downloaded from Demonoid.com.txt

0.05 KB
 

Announce URL:

Torrent description

--This is my own tv capture of this great documentary--

Program Info
Body of War - The True Story of an Anti-War Hero (2007)

Starring: Tomas Young Director: Phil Donahue, Ellen Spiro
Rating: G
Language: English
DVD Release Date: October 28, 2008
Run Time: 87 minutes


At the center of Body of War is Tomas Young, a smart, determined guy who enlisted in the military the day after he saw President Bush stride through the ruins of the World Trade Center. He expected to be sent to Afghanistan to get the people who attacked his country; instead, he was shipped to Iraq, where he took a bullet through the collarbone a week after arriving and was paralyzed for life from the chest down. Young's subsequent struggle to be heard, by speaking out and questioning why U.S. soldiers went to Iraq, is chronicled in this film. Directors Phil Donahue (yes, talkshow host Phil Donahue) and Ellen Spiro cast a wider net, which is where the film begins to feel a little scattered, even if their cause is a fervent one. The Senate vote on authorizing the Bush plan for Iraq is a running theme, with the names of the voters emblazoned on the screen (this would be an even more effective drumbeat if it weren't drowning in overbearing music). Meanwhile, West Virginia Senator Robert Byrd, an old political hand with a checkered past, emerges as the voice of Constitutional sanity. His soaring speeches leading up to the crucial vote are excerpted at length, so it's no surprise that he and Tomas Young should eventually meet. But whatever the film's ambitions, its finest moments are in following Young and bluntly assessing (with considerable physical detail) his status. Original songs by Eddie Vedder are judiciously placed and passionately delivered. --Robert Horton


Paralyzed from the chest down after serving in Iraq for just one week, 25-year-old Tomas Young is forced to deal with the realities of war each and every day. For Tomas, learning to cope with his disability meant finding his voice to speak out against the war in Iraq.

Directed by Phil Donahue and Ellen Spiro and set to the haunting vocals of Eddie Vedder, the multi award-winning BODY OF WAR splits its time between Tomas s arduous daily reality in Kansas City, MO, and the legislative processes that led up to the invasion of Iraq in 2002.

Senatorial speeches and a running tally of pro-war votes are interspliced with intimate footage of Tomas as he navigates through the acute physical and emotional impacts of his injury. A testament to the power of parallel images, the film adeptly juxtaposes the sanitized vantage point of Washington with raw personal experience. In the end, this contrast forces viewers to question the motives, methods, and ever-rising cost of the conflict in Iraq.

A deeply moving and bracingly honest film, BODY OF WAR narrates a story that must be heard - a story of courage, conviction, and resistance.

Video Info
Body.of.War.2007.TVrip.xvid.mp3-snach.avi

Format : AVI
Format/Info : Audio Video Interleave
File size : 700 MiB
Duration : 1h 27mn
Overal bit rate : 1121 Kbps
Writing application : MediaCoder 0.6

Video
Format : MPEG-4 Visual
Format profile : [email protected]
Format settings, BVOP : No
Format settings, QPel : No
Format settings, GMC : No warpoints
Format settings, Matrix : Default
Codec ID : XVID
Codec ID/Hint : XviD
Duration : 1h 27mn
Bit rate : 995 Kbps
Width : 712 pixels
Height : 360 pixels
Display aspect ratio : 16/9
Frame rate : 29.970 fps
Resolution : 8 bits
Colorimetry : 4:2:0
Scan type : Progressive
Bits/(Pixel*Frame) : 0.130
Stream size : 621 MiB
Writing library : XviD 1.2.0.dev47 (UTC 2006-11-01)

Audio
Format : MPEG Audio
Format version : Version 1
Format profile : Layer 3
Codec ID : 55
Codec ID/Hint : MP3
Duration : 1h 27mn
Bit rate mode : Constant
Bit rate : 112 Kbps
Channel(s) : 2 channels
Sampling rate : 48.0 KHz
Resolution : 16 bits
Stream size : 69.9 MiB

Visit:
--- http://tracker.conspiracycentral.net ----!!!!

Enjoy & Seed!

related torrents

Torrent name

health leech seeds Size

body of war xvid ita

0 0 476.45 MB 0
 

comments (0)

Main Menu