Comedy

Mars Attacks (1996) WS Opt MULTISUBS

  • Download 5x Faster
  • Download torrent
  • Direct Download
  • Rate this torrent +  |  -
Mars Attacks (1996) WS Opt MULTISUBS

Anonymous and Direct Download 300GB+ free


Torrent info

Name:Mars Attacks (1996) WS Opt MULTISUBS

Total Size: 704.26 MB

Magnet: Magnet Link

Seeds: 16

Leechers: 51

Stream: Watch Online @ Movie4u

Last Updated: 0000-00-00 00:00:00 (Update Now)

Torrent added: 2008-11-20 00:38:18




Torrent Files List


Info about this release.txt (Size: 704.26 MB) (Files: 16)

 Info about this release.txt

4.64 KB

 Mars Attacks! (1996) Widescreen Stereo (Optional multisubs)_Kuth.avi

696.83 MB

 Optional subtitles

  Dansk.rar

627.96 KB

  Deutsch.rar

580.09 KB

  English for the hearing impaired.rar

723.61 KB

  English.rar

591.31 KB

  Espanol.rar

594.04 KB

  Francais.rar

509.11 KB

  Hebrew.rar

668.71 KB

  Italiano.rar

537.98 KB

  Nederlands.rar

562.38 KB

  Norsk.rar

535.81 KB

  Notes on subtitle files and burning of discs.txt

2.20 KB

  Portugues.rar

573.53 KB

  Suomiseksi.rar

522.16 KB

  Svenska.rar

577.40 KB
 

Announce URL: http://tracker.thepiratebay.org/announce

Torrent description

Mars Attacks! (1996)

Optional subtitles in separate idx/sub files:
Danish, Dutch, English, English for the hearing impaired, Finnish, French, German, Hebrew, Italian, Norwegian, Portuguese, Spanish, Swedish.

I think I like this crazy science fiction comedy so much because the aliens turn out to be so unexpectedly wicked! Or perhaps I have always wanted to react as they do from Hank Williams' yodeling.

Widescreen DVDrip XviD 2-pass 720x304, really great stereo sound AC3.
Burn tested, runs well in both my standalone DivX players.


Format/Info : Audio Video Interleave
File size : 697 MiB
Duration : 1h 41mn
Overal bit rate : 960 Kbps

Video
Format : MPEG-4 Visual
Format profile : Streaming [email protected]
Format settings, BVOP : Yes
Format settings, QPel : No
Format settings, GMC : No warppoints
Format settings, Matrix : Default
Muxing mode : Packet Bitstream
Codec ID : XVID
Codec ID/Hint : XviD
Duration : 1h 41mn
Bit rate : 822 Kbps
Width : 720 pixels
Height : 304 pixels
Display aspect ratio : 2.35
Frame rate : 25.000 fps
Resolution : 8 bits
Colorimetry : 4:2:0
Scan type : Progressive
Bits/(Pixel*Frame) : 0.150
Stream size : 597 MiB
Writing library : XviD 1.2.0.dev47 (UTC 2006-11-01)

Audio
Format : MPEG Audio
Format version : Version 1
Format profile : Layer 3
Codec ID : 55
Codec ID/Hint : MP3
Duration : 1h 41mn
Bit rate mode : Constant
Bit rate : 128 Kbps
Minimum bit rate : 128 Kbps
Channel(s) : 2 channels
Sampling rate : 48.0 KHz
Resolution : 16 bits
Stream size : 92.9 MiB
Writing library : LAME3.97
Encoding settings : CBR

Source: PAL native (note that PAL/NTSC will give no problems for avi files).

Thanks to Kuthumi!

related torrents

Torrent name

health leech seeds Size
 


comments (0)

Main Menu