Rock

Jay Z & Linkin Park Collision Course

  • Download 5x Faster
  • Download torrent
  • Direct Download
  • Rate this torrent +  |  -
Jay Z & Linkin Park Collision Course

Anonymous and Direct Download 300GB+ free


Torrent info

Name:Jay Z & Linkin Park Collision Course

Total Size: 155.19 MB

Magnet: Magnet Link

Seeds: 0

Leechers: 0

Stream: Watch Online @ Movie4u

Last Updated: 0000-00-00 00:00:00 (Update Now)

Torrent added: 2008-11-19 04:36:14




Torrent Files List


01 - Dirt Off Your Shoulder & Lying From You.flac (Size: 155.19 MB) (Files: 9)

 01 - Dirt Off Your Shoulder & Lying From You.flac

29.63 MB

 02 - Big Pimpin' & Papercut.flac

18.95 MB

 03 - Jigga What & Faint.flac

26.41 MB

 04 - Numb & Encore.flac

23.85 MB

 05 - Izzo & In The End.flac

18.08 MB

 06 - Points of Authority, 99 Problems & One Step Closer.flac

38.26 MB

 Collision Course.cue

1.51 KB

 Jay-Z & Linkin Park - Collision Course.log

3.53 KB

 Jay-Z & Linkin Park - Collision Course.m3u

0.60 KB
 

Announce URL: http://irrenhaus.dyndns.dk/announce.php

Torrent description




# Artist: Jay-Z & Linkin Park
# Album: Collision Course
# Original Release Date: November 30, 2004
# Number of Discs: 2

Track Listings
1. Dirt Off Your Shoulder/Lying From You
2. Big Pimpin'/Papercut
3. Jigga What/Faint
4. Numb/Encore
5. Izzo/In The End
6. Points Of Authority/99 Problems/One Step Closer

The first question everyone asks about Collision Course is
"Is this album more Jay-Z or Linkin Park?" The wrong answer
is that it's Jay-Z with a loud band or a back-and-forth of covers
where one rearranges the other. The right answer is that this
CD/DVD set is quite possibly one of the best cross-genre pairings
of its kind. What started off as an exercise at "mashing" a Linkin Park
track with a Jay-Z track turned into a fantastic pickup game between t
wo artists at the top of their worlds. Each brought a short list of their
best songs to the field and walked away with a six-song trophy. This is
recess in the supergroup sandbox, and the boys shared their toys.
"Numb/Encore" and "Izzo/In the End" are near-perfect plays of seamless
sonic moves and mic assists from heavy metal to hip-hop and back. Both
artists have spent a little time in the other camp on various parts of their
records, but it's the collaboration that makes this album a winner. It may
be true that Linkin Park is less than convincing than J-Hova on
"Big Pimpin'/Papercut," but there's no evidence of "I" on this team.
In fact, the DVD clearly shows Linkin Park's Mike Shinoda taking on
the role of head coach as he commands the digital workstation,
the mixing desk, and all the players with a collective spirit

Exact Audio Copy V0.99 prebeta 3 from 28. July 2007

EAC extraction logfile from 21. July 2008, 0:19

Jay-Z & Linkin Park / Collision Course

Used drive : SONY DVD-ROM DDU1615 Adapter: 0 ID: 0

Read mode : Secure
Utilize accurate stream : Yes
Defeat audio cache : Yes
Make use of C2 pointers : Yes

Read offset correction : 6
Overread into Lead-In and Lead-Out : Yes
Fill up missing offset samples with silence : Yes
Delete leading and trailing silent blocks : No
Null samples used in CRC calculations : Yes
Used interface : Native Win32 interface for Win NT & 2000
Gap handling : Appended to previous track

Used output format : User Defined Encoder
Selected bitrate : 320 kBit/s
Quality : High
Add ID3 tag : No
Command line compressor : Crogram FilesExact Audio CopyFlacflac.exe
Additional command line options : -V -8 -T "artist=a" -T "title=t" -T "album=g" -T "date=y" -T "tracknumber=n" -T "genre=m" s


TOC of the extracted CD

Track Start Length Start sector End sector
---------------------------------------------------------
1 0:00.00 4:04.52 0 18351
2 4:04.52 2:36.24 18352 30075
3 6:41.01 3:31.13 30076 45913
4 10:12.14 3:25.21 45914 61309
5 13:37.35 2:44.65 61310 73674
6 16:22.25 4:55.62 73675 95861
7 23:50.12 1:34.25 107262 114336


Track 1

Filename C:EACRipsJay-Z & Linkin Park - 2004 - Collision Course?1 -
Dirt Off Your Shoulder & Lying From You.wav

Pre-gap length 0:00:02.00

Peak level 92.1
Track quality 100.0
Test CRC 091C509D
Copy CRC 091C509D
Accurately ripped (confidence 52) [33800557]
Copy OK

Track 2

Filename C:EACRipsJay-Z & Linkin Park - 2004 - Collision Course?2 -
Big Pimpin' & Papercut.wav

Peak level 98.8
Track quality 100.0
Test CRC 825F9636
Copy CRC 825F9636
Accurately ripped (confidence 51) [1F7C4116]
Copy OK

Track 3

Filename C:EACRipsJay-Z & Linkin Park - 2004 - Collision Course?3 -
Jigga What & Faint.wav

Peak level 98.8
Track quality 100.0
Test CRC 0916A61B
Copy CRC 0916A61B
Accurately ripped (confidence 49) [C5E04959]
Copy OK

Track 4

Filename C:EACRipsJay-Z & Linkin Park - 2004 - Collision Course?4 -
Numb & Encore.wav

Peak level 98.8
Track quality 99.8
Test CRC 59C2B4C8
Copy CRC 59C2B4C8
Accurately ripped (confidence 50) [CC2AD888]
Copy OK

Track 5

Filename C:EACRipsJay-Z & Linkin Park - 2004 - Collision Course?5 -
Izzo & In The End.wav

Peak level 95.4
Track quality 100.0
Test CRC 58298CA2
Copy CRC 58298CA2
Accurately ripped (confidence 49) [E325BE94]
Copy OK

Track 6

Filename C:EACRipsJay-Z & Linkin Park - 2004 - Collision Course?6 -
Points of Authority, 99 Problems & One Step Closer.wav

Peak level 98.8
Track quality 100.0
Test CRC 27562EAA
Copy CRC 27562EAA
Accurately ripped (confidence 51) [7FDD7F7C]
Copy OK


All tracks accurately ripped

No errors occurred

End of status report

related torrents

Torrent name

health leech seeds Size
 


comments (0)

Main Menu